<?xml version="1.0" standalone="no"?>
<!DOCTYPE svg PUBLIC "-//W3C//DTD SVG 1.1//EN" "http://www.w3.org/Graphics/SVG/1.1/DTD/svg11.dtd" >
<svg xmlns="http://www.w3.org/2000/svg" xmlns:xlink="http://www.w3.org/1999/xlink" version="1.1">
<metadata></metadata>
<defs>
<font id="proclamate_heavyheavy" horiz-adv-x="1126" >
<font-face units-per-em="2048" ascent="1638" descent="-410" />
<missing-glyph horiz-adv-x="620" />
<glyph horiz-adv-x="0" />
<glyph horiz-adv-x="682" />
<glyph unicode=" "  horiz-adv-x="620" />
<glyph unicode="&#x09;" horiz-adv-x="620" />
<glyph unicode="&#xa0;" horiz-adv-x="620" />
<glyph unicode="!" horiz-adv-x="753" d="M160 145q0 -53 30.5 -91t83.5 -38q37 0 78 10.5t74 32t54.5 53t21.5 72.5q0 31 -13.5 51.5t-35 33t-48 17.5t-53.5 5q-35 0 -69.5 -7.5t-62 -24.5t-44 -45t-16.5 -69zM53 588q33 -14 71 -47t73.5 -67t65.5 -59.5t46 -25.5q29 0 43.5 25.5t32.5 40.5q14 12 46 34.5 t64.5 45t57.5 43t25 30.5q0 8 -16.5 18.5t-36 24t-38 31.5t-20.5 47q0 6 -1 24.5t-2 38t-3 38t-2 24.5l8 242v196q6 45 10 80t33 70q14 18 51 34.5t75 30t67.5 20.5t29.5 5q0 4 2 19.5t2 19.5q-141 0 -260 -31t-217 -115q-6 -6 -18.5 -19t-24.5 -27.5t-22.5 -26t-12.5 -11.5 q-12 0 -28.5 25t-33 55.5t-35.5 55t-38 24.5q-16 0 -21.5 -5t-5.5 -21v-17q35 -47 58.5 -86t39 -80t25 -85t15.5 -99l-4 -412q0 -23 -15.5 -33t-35 -18t-35 -17.5t-15.5 -27.5v-12z" />
<glyph unicode="&#x22;" horiz-adv-x="770" d="M434 1413q0 -31 6 -50.5t17.5 -34.5t27 -30.5t33.5 -37.5q6 -10 16.5 -30t22.5 -39.5t27.5 -33.5t36.5 -14q10 0 31.5 29.5t43 69.5t38 83t16.5 68q0 70 -34 118t-112 48q-31 0 -61.5 -10.5t-54 -30t-39 -46t-15.5 -59.5zM20 1407q0 -29 21.5 -69t51.5 -75.5t57.5 -61 t39.5 -25.5h13q27 0 42 14t24.5 33.5t16.5 43t17 42.5q16 31 28.5 46t12.5 48q0 66 -37 111t-108 45q-31 0 -62 -11.5t-57.5 -32t-43 -48t-16.5 -60.5z" />
<glyph unicode="&#x26;" horiz-adv-x="1806" d="M20 356q31 -55 57.5 -100t67.5 -98q14 -20 45 -49t65 -55.5t63.5 -46t43.5 -19.5q23 0 74 27.5t104.5 62.5t99.5 65.5t60 38.5q16 10 28.5 22.5t35.5 12.5q16 0 32.5 -9t34 -22.5t36 -28t40.5 -24.5q80 -47 169 -65.5t181 -18.5h89q4 0 21 3t38.5 7t42 8.5t31.5 6.5 q25 6 76 26.5t102 47t90 56t39 52.5q0 16 -3 25.5t-22 9.5h-16q-66 -35 -150 -51.5t-155 -16.5q-51 0 -126 25.5t-145.5 61.5t-121 72t-50.5 54v0q0 2 2 4l156 156q14 14 27.5 16t29.5 2q43 0 85 -9t87 -9q70 0 117 18.5t85 47t73 66.5t78 77v12q0 23 -19.5 26t-36.5 3 q-35 0 -53 -16.5t-41 -43.5h-92q-16 0 -22.5 14.5t-9.5 33t-6 35t-11 18.5h-33q-39 0 -61.5 -7.5t-39 -21.5t-31.5 -32.5t-42 -39.5q-33 -27 -86 -75.5t-103.5 -96t-89 -81t-45.5 -27.5l-16 8q-20 8 -41.5 29.5t-42 47t-40 52.5t-34.5 45q-23 31 -49 68t-26 78l2 4 q0 10 31.5 24.5t66.5 26.5t61.5 21.5t14.5 9.5q2 2 8 5t8 3q76 47 144.5 131t103.5 168v78q0 72 -17.5 138t-72.5 116h-92q-129 0 -241 -40t-214 -118q-45 -23 -79 -76t-55.5 -117.5t-31.5 -131t-10 -115.5q0 -29 5 -56.5t5 -56.5v-8q0 -8 -8 -11q-53 -29 -102.5 -58.5 t-87 -71.5t-61.5 -99t-24 -139v-25v-80zM676 274q-2 -4 -21.5 -15t-41 -25.5t-39.5 -24.5l-19 -10q-31 0 -72 35.5t-79.5 84t-66.5 94.5t-34 68q-10 45 -10 84q0 8 2 33t7 52.5t11 49t15 21.5h8q27 -47 51.5 -92t49 -89t54 -86t68.5 -81q27 -27 58.5 -48.5t58.5 -50.5z M592 1149v4q2 37 11 91t25.5 104.5t41 85t59.5 34.5q45 0 72.5 -25.5t42 -63.5t18.5 -80t4 -74q0 -41 -15 -93.5t-44 -99.5t-69 -79.5t-89 -32.5q-14 0 -24.5 24.5t-17.5 60t-11 75.5t-4 69z" />
<glyph unicode="'" horiz-adv-x="356" d="M20 1413q0 -39 10.5 -61.5t26 -39t35 -31.5t37.5 -40q10 -23 24.5 -40t36.5 -17q14 0 39 27.5t48.5 63.5t41 72.5t17.5 55.5q0 66 -37 111t-109 45q-66 0 -118 -40t-52 -106z" />
<glyph unicode="," horiz-adv-x="348" d="M86 -123q0 -18 14.5 -22.5t26.5 -4.5q39 0 76 34t64.5 81t44 98.5t16.5 88.5v49q-18 53 -76 75h-53q-33 0 -65 -8t-57.5 -24.5t-41 -43t-15.5 -65.5q0 -59 37 -100t97 -41v-8q0 -18 -10.5 -30.5t-24 -24t-23.5 -24t-10 -30.5z" />
<glyph unicode="-" d="M20 770q0 -16 12.5 -31.5t20.5 -27.5q27 -39 55.5 -79t62.5 -72t75 -52.5t94 -20.5q76 0 141.5 35t127 78t126 78t139.5 35q66 0 107 -30t84 -79l1 -1t3 -1q14 0 25.5 12.5t11.5 26.5t-8 33.5t-20.5 37t-25 33t-20.5 25.5q-68 74 -144.5 120t-178.5 46q-76 0 -141.5 -34 t-127 -75t-124 -74.5t-132.5 -33.5q-27 0 -48 10t-38.5 23.5t-30 23.5t-20.5 10q-10 0 -18.5 -3t-8.5 -13z" />
<glyph unicode="." horiz-adv-x="339" d="M20 133q0 -23 5.5 -46.5t16.5 -42.5t28.5 -31.5t42.5 -12.5q35 0 71.5 13.5t66.5 37t49 55t19 66.5q0 74 -75 102h-54q-72 0 -121 -30.5t-49 -110.5z" />
<glyph unicode="0" horiz-adv-x="1318" d="M20 737q0 -88 23 -178t65 -174t101 -156.5t132 -127t159 -86t180 -31.5q74 0 146.5 33.5t131.5 74.5q80 53 143.5 129t107.5 163t66.5 183.5t22.5 192.5q0 76 -10 157.5t-39 153.5q-37 92 -100.5 172t-146 137.5t-178 90t-195.5 32.5q-66 0 -122 -21.5t-114 -54.5 q-92 -53 -161.5 -127.5t-116.5 -166t-71 -192t-24 -204.5zM502 207v840q0 70 -1 144.5t10 137t43 102t97 39.5q45 0 73 -16t43 -42t23.5 -59.5t18.5 -66.5v-1087q0 -6 -2 -20.5t-5 -30t-6 -29t-3 -19.5l-68 -67q-6 -6 -28.5 -7t-32.5 -1q-55 0 -82 15t-39.5 40.5t-18.5 58.5 t-22 68z" />
<glyph unicode="1" horiz-adv-x="960" d="M45 20v-6q0 -12 8 -14h340h68h110t126 2t119 4t89 7t35 12q0 4 -1 12t-7 8h-223q-12 0 -19.5 11.5t-10.5 26.5t-4 30.5t-1 21.5q0 215 5 427t5 427v531q0 10 -5 11t-9 1h-21q-6 0 -21.5 -1t-31.5 -2t-31.5 -3t-21.5 -2q-41 -94 -92.5 -148.5t-115 -83t-140 -40 t-166.5 -17.5q-8 -4 -9.5 -11t-1.5 -12q0 -16 6.5 -18t28.5 -2h183q8 0 23 -13.5t26 -27.5q6 -193 8 -367t2 -362q0 -49 2 -111.5t0 -120t-9 -99.5t-28 -50q-10 0 -32.5 1t-49.5 1h-47t-31.5 -1t-26 -3t-28.5 -6v-13z" />
<glyph unicode="2" horiz-adv-x="1185" d="M535 86q43 -18 70.5 -34.5t55 -29t59.5 -20.5t81 -8q31 0 63.5 8t59.5 25q84 49 132 116.5t72.5 147.5t31.5 167t7 177q-14 0 -22 -24.5t-16.5 -56.5t-20.5 -64.5t-35 -47.5q-41 -31 -98 -37t-109 -6h-32q-59 0 -121 5.5t-121 5.5q-98 0 -195.5 -6.5t-193.5 -20.5l-8 8 q35 53 97 79t118 46q84 31 173 53.5t173 49t157.5 61.5t130 89t89 133t32.5 194q0 119 -64.5 198.5t-160.5 129t-206.5 69.5t-201.5 20q-98 0 -190 -25.5t-164 -77.5t-115 -132t-43 -191q0 -47 20.5 -85.5t53.5 -67.5t76 -45.5t86 -16.5q51 0 89 21.5t63.5 56.5t39 79 t13.5 89t-19.5 68.5t-49.5 36t-64.5 16.5t-64.5 10t-49 18.5t-19 39.5q0 43 25.5 72.5t63.5 48t81 26.5t77 8q61 0 113.5 -21.5t90.5 -59.5t58.5 -90t20.5 -115q0 -86 -29.5 -162t-79 -145.5t-116 -135t-140.5 -133.5q-55 -51 -107 -101t-93 -105.5t-65.5 -121t-24.5 -147.5 q0 -18 5 -40t15 -40t27.5 -30.5t40.5 -12.5q31 0 43 26.5t12 53.5t-12.5 49.5t-25.5 44t-25.5 43t-12.5 49.5q0 31 24.5 52.5t53.5 21.5t61.5 -15.5t51.5 -33.5z" />
<glyph unicode="3" horiz-adv-x="1193" d="M20 350q0 -92 48.5 -158.5t121 -109.5t159.5 -62.5t165 -19.5q100 0 216 22.5t214 73.5t164 135t66 209q0 80 -33 142.5t-87.5 108.5t-123 79t-137.5 51v17q72 20 144.5 57t111.5 109q16 27 25 54t26 54v49q0 104 -45 173t-118 110t-162 57.5t-177 16.5h-96 q-63 0 -138 -16.5t-140.5 -52.5t-109.5 -92.5t-44 -137.5q0 -98 47 -156.5t151 -58.5q90 0 149.5 49t59.5 141q0 63 -28.5 90t-63.5 39t-63.5 22.5t-28.5 43.5q0 31 20.5 49t48 29.5t58.5 14.5t53 3q29 0 59.5 -6t58 -20.5t48 -37t29.5 -53.5q10 -35 18 -90t8 -96 q0 -70 -5 -132.5t-26.5 -109.5t-66.5 -74.5t-127 -27.5h-190q-4 -2 -10.5 -8.5l-8.5 -8.5v-8q2 -4 8 -9t11 -7h223q78 0 123 -37t67.5 -94.5t28.5 -126t6 -129.5q0 -76 -9 -143.5t-39 -118t-85 -79t-145 -28.5q-20 0 -54.5 3t-68 14.5t-58 29.5t-24.5 49q0 23 28.5 36 t63.5 33.5t63.5 56.5t28.5 104q0 61 -25.5 113t-99.5 75h-133q-2 0 -12.5 -5t-23.5 -11.5t-26.5 -13.5t-21.5 -11q-39 -25 -52.5 -74t-13.5 -90z" />
<glyph unicode="4" horiz-adv-x="1275" d="M643 238q0 -6 -1 -38t-5 -68t-12.5 -63.5t-24.5 -27.5h-174q-23 0 -34 -8t-11 -33h866v37h-207q-4 0 -14 16.5t-10 20.5v250l24 28h215v86l-16 19h-174q-14 0 -28.5 5t-20.5 19q0 29 -2 100.5t-3 152.5t-2 152.5t-1 100.5q0 2 -1 16.5t-1 20.5q0 23 1 35t9 35v424h-234 q-6 0 -31.5 -35t-54 -79t-54.5 -84t-34 -52q-12 -18 -39.5 -51t-57.5 -70t-54.5 -72t-30.5 -55l-381 -571q-16 -25 -21.5 -37.5t-5.5 -34.5q0 -16 6.5 -26.5t22.5 -10.5h14q18 0 86 1t147 3t146.5 3t85.5 1h33q29 -6 46.5 -10t25.5 -11.5t10 -20.5t2 -34v-34zM526 1077 q10 8 21.5 25.5t24 36t26.5 33t31 14.5q10 0 12 -7.5t2 -15.5v-6q0 -23 -2 -39t-8 -41v-612l-8 -8h-39q-117 0 -233.5 -5.5t-235.5 -5.5q0 33 20 60z" />
<glyph unicode="5" horiz-adv-x="1185" d="M20 344q0 -88 38 -155.5t100.5 -113.5t141.5 -69.5t161 -23.5q123 0 248 30.5t226 96t165.5 167t64.5 242.5q0 115 -42 207t-114.5 155.5t-171 97.5t-210.5 34q-68 0 -135.5 -12.5t-131.5 -36.5q-20 -8 -50.5 -31t-59.5 -47.5t-51.5 -44t-24.5 -19.5h-4q-6 23 -7 32 t-1 26v18v72t3 78.5t12 63.5t26 26q70 0 138.5 -13.5t139.5 -13.5q100 0 194.5 32t167 92t115.5 146t43 197q-18 0 -27 -18.5t-23.5 -41t-38 -44t-70.5 -29.5h-23q-14 0 -31.5 -1t-33.5 -1h-21q-23 0 -79 3t-126.5 7t-146.5 11t-137 14q-23 10 -37 14t-37 4h-6 q-16 0 -19 -10v-76q0 -154 -9 -304.5t-9 -303.5v-29q0 -16 1 -31.5t3 -28t6 -16.5h4q8 0 22.5 18.5t30 43t32 48t26.5 32.5q59 47 119.5 77.5t138.5 30.5t121 -49t64.5 -120.5t26.5 -152.5t5 -143v-49q0 -74 -14.5 -147.5t-48 -134t-92 -97.5t-144.5 -37q-18 0 -52 5.5 t-67 17.5t-57.5 30.5t-24.5 45.5q0 37 33 54t72 36.5t71.5 51.5t32.5 99q0 92 -59.5 150.5t-151.5 58.5q-96 0 -150.5 -64.5t-54.5 -156.5z" />
<glyph unicode="6" horiz-adv-x="1193" d="M18 741q0 -135 37 -269t113 -240.5t189.5 -173t265.5 -66.5q104 0 203.5 35.5t176 100.5t124 156t47.5 201q0 141 -69 247t-198 163q-31 14 -57.5 24.5t-61.5 10.5q-51 0 -91 -8.5t-73.5 -25.5t-65.5 -44t-64 -64h-9q-4 0 -7 35t-3 84q0 14 2 53t6 89.5t9.5 102.5t9.5 93 q12 100 57 157.5t150 57.5q18 0 42.5 -1t47 -7t38 -20.5t15.5 -40.5q0 -25 -19.5 -38.5t-44 -29.5t-44 -41t-19.5 -70q0 -78 54.5 -131t131.5 -53q39 0 78 11.5t68.5 34t48 56t18.5 76.5q0 76 -40 132.5t-101 94t-134 57t-136 19.5q-156 0 -284 -64.5t-219 -172t-141.5 -246 t-50.5 -285.5zM477 545q0 39 8.5 92t29 101t56 82t88.5 34q16 0 40 -20.5t26 -36.5l8 -92v-531q0 -59 -38 -104t-99 -45q-39 0 -61.5 17t-32.5 45t-13.5 61.5t-3.5 66.5v51q0 8 -1 42t-3 74t-3 73.5t-1 42.5v47z" />
<glyph unicode="7" horiz-adv-x="1101" d="M236 299q0 -123 67.5 -207t196.5 -84q90 0 140 36t75.5 93.5t33 131t10.5 149.5t9 146.5t31 123.5q37 84 86 157t93 145.5t74.5 150.5t30.5 174q0 31 -3 66.5t-15 68.5t-34.5 54.5t-61.5 21.5q-78 0 -78 -80q0 -37 20.5 -60.5t46 -45t46 -45t20.5 -60.5q0 -23 -18.5 -37 t-40.5 -14q-43 0 -79 25.5t-71 63.5t-69.5 82t-77.5 82t-94.5 63.5t-116.5 25.5q-61 0 -108.5 -24.5t-85.5 -62.5t-68.5 -86t-57.5 -93q-8 -12 -10 -17.5t-14 -5.5v246q0 16 -17.5 25.5t-29.5 9.5q-29 0 -46 -27v-41q0 -66 9.5 -132.5t9.5 -131.5q0 -88 -9.5 -173t-9.5 -171 v-29q2 -10 17 -10h8q8 61 22.5 117.5t42 98.5t72.5 67.5t119 25.5q72 0 138.5 -10t135.5 -25q10 -10 35 -14t52 -4q55 0 99 2t84 9t75.5 20.5t76.5 35.5h17q0 -29 -14.5 -45t-34.5 -37q-57 -63 -134 -113t-158 -97.5t-160 -97.5t-140.5 -111.5t-99 -141.5t-37.5 -184z" />
<glyph unicode="8" horiz-adv-x="1275" d="M20 356q0 -88 63.5 -156.5t158 -116.5t201 -73.5t190.5 -25.5q117 0 228.5 27.5t199.5 88t141 153.5t53 224q0 88 -22.5 154.5t-65.5 119t-104.5 93.5t-138.5 76v16q37 23 84 44t87 48t67.5 61.5t27.5 84.5q0 104 -65.5 171.5t-160 107.5t-200 56.5t-184.5 16.5 q-109 0 -209.5 -33t-178 -94.5t-125 -151.5t-47.5 -205q0 -63 23 -121.5t59 -107.5q10 -12 41 -35.5t65 -47t60.5 -43t26.5 -23.5q0 -14 -10 -17q-49 -23 -96.5 -49.5t-84 -60t-60.5 -78t-24 -103.5zM203 313q0 25 16.5 79t41 111.5t54 100.5t54.5 43h8q4 -2 16.5 -8 t16.5 -8l307 -92q39 -25 91 -42.5t100 -43t82 -64.5t34 -102q0 -76 -37 -126t-92 -81t-121.5 -43t-128.5 -12q-66 0 -142.5 14t-143 47t-111.5 88t-45 139zM293 1272q0 68 34.5 107.5t87 61t113 29t111.5 7.5q57 0 120.5 -14.5t117 -45.5t88 -80t34.5 -118q0 -23 -13 -66 t-34.5 -86t-48 -74.5t-53.5 -31.5q2 0 -34 11t-85 26.5t-100 30.5t-80 24q-39 12 -84 29.5t-84 43t-64.5 61.5t-25.5 85z" />
<glyph unicode="9" horiz-adv-x="1202" d="M78 272q0 -74 38 -128t95 -90t126 -53t130 -17q135 0 251 43t207 119.5t152.5 185t87.5 241.5q18 80 19 191q0 137 -37 268t-111.5 233.5t-187.5 165t-264 62.5q-102 0 -203.5 -35t-181.5 -98.5t-129.5 -154.5t-49.5 -201q0 -82 26 -160t77 -138.5t127 -97.5t176 -37 q49 0 87 7.5t70.5 22.5t61.5 41t64 63h4q0 -12 1 -40t1 -63q0 -33 1 -66.5t1 -56.5v-22q0 -66 -2 -135.5t-16.5 -130t-47.5 -105.5t-92 -61h-65q-14 0 -41 1t-52.5 7t-45 20.5t-19.5 38.5q0 27 22.5 41t48 32.5t48 46.5t22.5 83q0 80 -54 121t-132 41q-90 0 -151.5 -43.5 t-61.5 -141.5zM459 926v24t1 39t1 39v25q2 8 3 41.5t2 78t5 93.5t13.5 91t24.5 68.5t42 26.5h92q27 0 44.5 -24.5t25.5 -61.5t11 -81t3 -83q0 -33 -1 -57.5t-1 -32.5v-53q0 -53 -4 -125t-21.5 -137.5t-52.5 -111.5t-96 -46q-43 0 -62.5 30.5t-25.5 74.5t-5 94.5t1 87.5z" />
<glyph unicode=":" horiz-adv-x="348" d="M20 133q0 -20 7.5 -43.5t20.5 -43t31.5 -33t41.5 -13.5q35 0 71.5 13.5t66.5 37t49.5 55t19.5 66.5q0 76 -76 102h-57q-70 0 -122.5 -30.5t-52.5 -110.5zM20 895q0 -20 7.5 -44t20.5 -43.5t31.5 -32.5t41.5 -13q35 0 71.5 14.5t66.5 38t49.5 55t19.5 66.5q0 76 -76 102 h-57q-70 0 -122.5 -30.5t-52.5 -112.5z" />
<glyph unicode=";" horiz-adv-x="356" d="M78 -123q0 -18 18.5 -21t30.5 -3q39 0 75 32.5t63.5 79.5t45 98.5t17.5 88.5v49q-18 53 -76 75h-53q-33 0 -65 -8t-57.5 -24.5t-41 -43t-15.5 -65.5v-14q0 -4 1.5 -6t7.5 -13q12 -29 21 -49t21.5 -32.5t31 -18.5t51.5 -8v-8q0 -18 -12.5 -30.5t-26 -24t-25.5 -24 t-12 -30.5zM37 897q0 -20 5 -44t16.5 -43t28.5 -32.5t42 -13.5q37 0 74 12t66.5 36t48 55.5t18.5 70.5q0 51 -34 76.5t-95 25.5q-72 0 -121 -30.5t-49 -112.5z" />
<glyph unicode="?" horiz-adv-x="1433" d="M508 129q0 -53 30.5 -91t84.5 -38q35 0 74.5 11.5t74.5 31.5t57.5 51t22.5 72q0 31 -14.5 52.5t-36 33.5t-48 17t-53.5 5q-35 0 -69.5 -7t-62 -24.5t-44 -45t-16.5 -68.5zM313 481q41 0 78 -15t72 -34.5t70.5 -37t74.5 -21.5h174q4 0 19.5 3t23.5 5q4 2 43 18.5t100.5 46 t121 60.5t101.5 59.5t42 44.5q0 14 -10.5 17.5t-22.5 3.5h-16q-27 0 -51.5 -10.5t-51 -23.5t-56.5 -23.5t-62 -10.5q-10 0 -51.5 10.5t-86.5 25.5t-80.5 31.5t-35.5 28.5q0 4 31.5 19.5t80.5 39t112.5 55.5t127 69t121 80t98.5 90q25 31 48.5 69.5t40.5 78.5t27.5 77 t10.5 61q0 68 -40 116t-95 80t-115.5 49.5t-99.5 23.5q-102 18 -203 18q-94 0 -186 -18q-55 0 -124 -18.5t-140.5 -51.5t-140 -77t-123 -93t-87.5 -102.5t-33 -106.5v-26q0 -66 36 -105t89.5 -59.5t115 -26.5t110.5 -6h49q23 0 43 1t42.5 2t53.5 5q14 2 51 10.5t76 19.5 t68.5 22.5t29.5 21.5q0 23 -14 29t-33 6q-41 0 -73.5 -21.5t-71.5 -29.5q-41 -6 -92 -7.5t-92 -1.5q-35 0 -82 4.5t-89 18.5t-72 44t-30 79q0 76 62.5 128t148.5 86t174 49t139 15q66 0 131.5 -17.5t118 -48t84 -71.5t31.5 -90q0 -55 -20.5 -101.5t-53 -86t-72.5 -74.5 t-79 -66q-84 -72 -191.5 -128t-206.5 -97q-12 -4 -44.5 -14.5t-66.5 -24.5t-60.5 -31.5t-26.5 -38.5q0 -10 12 -13t23 -3h14q18 0 31.5 5t29.5 5z" />
<glyph unicode="A" horiz-adv-x="1632" d="M336 201q100 0 184 -54.5t131 -146.5h4q10 0 26.5 13.5t35 31.5t37 39.5t37.5 40.5q35 29 77.5 66.5t79.5 71.5t61.5 56.5t22.5 20.5h8q12 0 17 -8q4 -109 46 -191t144 -133h13q10 0 15 1t13 7l258 224q25 8 46.5 30.5t21.5 48.5q-16 0 -29.5 -8t-26 -19t-26.5 -19.5 t-33 -8.5q-39 0 -54 33t-15 68v952q0 70 27.5 103.5t60 50t60.5 26.5t28 33q-102 0 -202.5 -33t-189.5 -80q-10 -6 -28.5 -24.5t-37 -39t-33.5 -37t-21 -16.5q-16 0 -26.5 33t-23 73t-30 72.5t-43.5 32.5q0 -23 9 -35t19 -34q31 -78 48.5 -166t17.5 -174v-621 q0 -33 -18.5 -65.5t-44 -62t-56.5 -55.5t-55 -42q-14 0 -29.5 11.5t-30 25.5t-27.5 27.5t-22 19.5q-8 6 -27.5 18.5t-41 25.5t-39 23.5t-23.5 14.5q-6 2 -27.5 7t-45 11t-42 13.5t-18.5 15.5q0 6 46 33.5t106.5 65.5t119 82t84.5 87q35 59 43.5 128t8.5 136q0 55 -4 116 t-19.5 118t-44.5 109.5t-76 89.5q-78 61 -143.5 80.5t-140.5 19.5q-96 0 -183.5 -32t-153 -89t-103.5 -139t-38 -182q0 -68 21.5 -138.5t79.5 -115.5q25 -18 59.5 -35t67.5 -34t56.5 -39.5t23.5 -53.5q0 -29 -19.5 -50.5t-45 -39t-54.5 -28.5t-47 -19v-15q66 0 118 34t89 86 t56 114.5t19 120.5q0 74 -24.5 123t-60 81.5t-77.5 54t-78 42t-60.5 45t-24.5 63.5q0 35 14 62.5t39 46t55.5 28t63.5 9.5q88 0 139 -53.5t75.5 -133.5t31 -170t6.5 -164v-77q0 -29 1 -60t1 -61q0 -72 -16.5 -138.5t-77.5 -111.5q-45 -35 -103.5 -81t-110 -97t-87 -106.5 t-35.5 -108.5q8 0 19 11t24.5 26.5t29 33t31.5 31.5q23 20 55.5 23.5t61.5 3.5z" />
<glyph unicode="B" horiz-adv-x="1716" d="M254 332q45 0 91 -23.5t90 -57.5t86 -71t79 -63q78 -59 171 -88t192 -29q70 0 148.5 25.5t156.5 70.5t149.5 104.5t125.5 128t87 141.5t33 144q0 74 -27.5 134.5t-81.5 113.5q-10 10 -30.5 22.5t-42 25t-36.5 25.5t-15 23v5q8 8 51 22t90 26.5t86 19.5t39 5v8q0 8 -8 9 q-43 2 -71 8t-43 21.5t-23.5 42t-12.5 69.5q-8 78 -20.5 143.5t-43 113.5t-86 74.5t-151.5 26.5q-47 0 -99.5 -8t-98.5 -27.5t-81.5 -54.5t-50.5 -86h-16q-2 0 -17.5 15.5t-23.5 25.5q-66 76 -144.5 101.5t-179.5 25.5q-90 0 -181 -27.5t-163.5 -82t-118 -133t-45.5 -181.5 q0 -49 12.5 -104t47.5 -96q18 -20 47 -40t55.5 -41.5t46 -46t19.5 -55.5q0 -39 -23.5 -58.5t-53.5 -30.5t-53.5 -21.5t-23.5 -30.5q68 0 128.5 31.5t106.5 83t73.5 115t27.5 128.5q0 57 -19.5 97.5t-50 69t-64.5 50t-64.5 43t-50 48t-19.5 65.5q0 35 16.5 58.5t41 39 t55 21.5t59.5 6q20 0 41.5 -10t36.5 -25q49 -45 76.5 -97t40 -110.5t15.5 -121t3 -123.5v-29q0 -35 1 -99.5t-3 -128t-17.5 -113.5t-40.5 -56q-74 -12 -144.5 -40t-125.5 -73t-89 -108.5t-34 -145.5q12 0 21 10q4 63 42 106.5t99 43.5zM567 539q0 10 8 16q92 61 172 117.5 t152 140.5l13 13t12 3h16q74 0 159 -45t157.5 -114.5t119.5 -150.5t47 -154q0 -92 -54 -155t-148 -63q-68 0 -135.5 39t-132 92.5t-126 110.5t-118.5 92q-6 4 -30 12.5t-48.5 16.5t-44 16.5t-19.5 12.5zM932 897q0 27 5 69t5 87q0 63 -9 124.5t-9 125.5q0 29 11 59.5 t30.5 56t46 42t57.5 16.5q33 0 51.5 -20.5t29.5 -53.5t16 -73t10.5 -80t13.5 -74.5t24 -55.5q16 -23 51 -41t70 -33.5t61.5 -26.5t26.5 -15q0 -10 -53 -29t-129 -39.5t-155.5 -41t-135.5 -32.5q-12 4 -15 11.5t-3 17.5v6z" />
<glyph unicode="C" horiz-adv-x="1624" d="M20 827q0 -209 73 -364.5t191.5 -258t272.5 -153.5t317 -51q133 0 238 23.5t185.5 76t141 136t107.5 204.5q6 18 12.5 33.5t6.5 36.5q-14 0 -37 -41t-48.5 -93t-53 -103.5t-54.5 -71.5q-74 -59 -140.5 -104.5t-141.5 -45.5h-224q-80 0 -140 33t-104 87t-72 120.5 t-45.5 134.5t-23.5 129t-6 102v76q0 145 12.5 278.5t47.5 274.5q4 4 11 26.5t13 41.5q29 66 78 107.5t121 41.5q70 0 110.5 -39t40.5 -108q0 -33 -15 -41t-36 -29q-37 -35 -71.5 -69.5t-61.5 -73.5t-43 -83t-16 -97q0 -84 45 -152t100 -130.5t100 -124.5t45 -136 q0 -51 -22.5 -69.5t-67.5 -18.5q-70 0 -113.5 52t-69.5 114.5t-39 115t-23 52.5t-11.5 -7.5t-1.5 -13.5q0 -23 5 -40t12 -40q18 -59 42.5 -111.5t61.5 -90t87 -59t118 -21.5q43 0 73.5 5t82.5 21q23 6 53.5 31t59 55.5t49 63.5t20.5 57v174q0 2 -3 11.5t-5 13.5 q-29 63 -61 115.5t-70.5 102.5t-82.5 102t-94 120q-8 10 -20 37t-12 45q0 35 16 56.5t41 43.5h14q27 0 48.5 -27.5t37.5 -39.5q104 -84 242 -84q43 0 93 17.5t92 47t71 71.5t29 91q-35 0 -67 -13.5t-66 -13.5q-39 0 -73 24t-62.5 51.5t-49 51t-33.5 23.5q-27 0 -63.5 -24.5 t-78.5 -55.5t-82 -55.5t-72 -24.5q-8 0 -15.5 15.5t-16.5 35t-22.5 41t-32.5 33.5q-43 31 -89 41t-99 10q-147 0 -269 -61t-210 -162.5t-137.5 -232t-49.5 -269.5z" />
<glyph unicode="D" horiz-adv-x="1640" d="M266 244q16 0 29.5 -4t32.5 -15l331 -166q66 -35 147 -47t155 -12q109 0 206 36t177.5 98.5t143 148.5t99.5 184q23 61 28 131t5 135q0 98 -23.5 201.5t-70.5 198t-117 173t-162 130.5q-117 66 -237.5 91t-253.5 25q-119 0 -220.5 -19.5t-187.5 -62.5t-157.5 -114.5 t-129.5 -175.5q-41 -80 -41 -179q0 -344 345 -344q10 0 27.5 2.5t34.5 7.5t29.5 15t12.5 27q-39 0 -74 -5.5t-71 -5.5h-72q-33 8 -63.5 25.5t-55 42.5t-40 56.5t-15.5 68.5q0 66 29.5 113t79 78.5t111.5 51t126.5 30t125 13.5t105.5 3h4q4 -2 18.5 -6.5t14.5 -14.5v-6 q-2 -2 -4 -7t-4 -9q-23 -33 -48.5 -68t-48 -71.5t-37.5 -75.5t-15 -82q0 -61 29.5 -101.5t73.5 -70t96 -49t96 -39t74 -41t30 -52.5q0 -10 -4 -26.5t-12.5 -31.5t-18.5 -26.5t-25 -11.5h-8q-39 12 -73.5 26.5t-71.5 25t-80 17.5t-98 7q-133 0 -232.5 -44t-165.5 -165 q-23 -39 -41 -76t-18 -84q16 0 28.5 22.5t30 50.5t45 50.5t76.5 22.5zM932 358q-8 2 -8 15v8q0 14 11 28.5t26.5 28t31 24.5t23.5 21q53 61 89 121t36 144q0 70 -32 114.5t-80 73.5t-104.5 46t-104.5 34.5t-79.5 40t-31.5 59.5q0 25 13 44.5t40 19.5h4q121 -14 260 -51 t259 -107t199 -174.5t79 -253.5q0 -49 -15.5 -108.5t-45 -111.5t-75 -88t-104.5 -36q-115 0 -203 27.5t-188 80.5z" />
<glyph unicode="E" horiz-adv-x="1675" d="M20 827q0 -197 62.5 -351t174.5 -260.5t267.5 -162t343.5 -55.5q162 0 306.5 52t257.5 173q6 6 19 21.5t27.5 33t24.5 35t10 31.5v4q0 8 -8 8h-8l-8 -8q-2 -2 -9 -12t-15.5 -20.5t-15.5 -20.5t-9 -12q-98 -111 -220 -172.5t-270 -61.5q-160 0 -256 55.5t-148 147.5 t-68.5 215t-16.5 258q0 68 1 152t8 171t23.5 168.5t47 145t79 102.5t119.5 39q25 0 55.5 -7t58.5 -21.5t46.5 -36t18.5 -49.5q0 -14 -23 -35t-52.5 -42.5t-57 -42t-35.5 -32.5q-41 -57 -70 -110.5t-29 -127.5q0 -80 44 -152.5t97.5 -140t97.5 -133t44 -129.5v-47 q-12 -16 -20.5 -25.5t-17.5 -14.5t-22.5 -7t-35.5 -2q-53 0 -91 39t-65 94.5t-40 112.5t-15 94q-4 10 -13.5 11t-15.5 1q0 -74 19.5 -145.5t59.5 -128.5t101.5 -93t147.5 -36q59 0 119.5 21.5t109.5 59.5t80 92t31 122q0 70 -17.5 132t-17.5 130q0 31 7 66.5t22.5 65.5 t42 49.5t63.5 19.5q33 0 33 -31q0 -16 -11.5 -31.5t-23.5 -33t-23.5 -40t-11.5 -49.5q0 -66 39 -115.5t111 -49.5q43 0 71.5 19t46 50t25.5 69t8 75q0 31 -20.5 64.5t-51 63t-66.5 48t-65 18.5q-53 0 -92 -17.5t-66.5 -48t-44 -71.5t-26.5 -88l-8 -8l-16 16q-4 6 -17.5 26.5 t-29 45t-29 45t-17.5 24.5q-18 29 -45.5 60.5t-52.5 64.5t-42 69t-17 75q0 23 19.5 44t43.5 21h10t11 -2q35 -31 67.5 -58.5t66.5 -50t73.5 -36t91.5 -13.5q55 0 115.5 29t112.5 71t86 87t34 76v4q0 8 -8 8h-9q-35 -37 -64.5 -56.5t-78.5 -19.5q-55 0 -94 24.5t-65.5 55.5 t-40 55.5t-17.5 24.5q-35 0 -67.5 -25.5t-61.5 -42.5q-25 -12 -53.5 -28.5t-53 -31t-44 -23.5t-27.5 -9q-2 0 -3 1l-1 1q-31 33 -58.5 59.5t-58.5 45t-70 27.5t-92 9q-147 0 -270 -58t-211 -157.5t-137.5 -232t-49.5 -277.5z" />
<glyph unicode="F" horiz-adv-x="1583" d="M154 14q0 -111 58 -200.5t147.5 -152t198 -97.5t206.5 -35q129 0 250 44t213 123t147.5 189.5t55.5 245.5q0 86 -40 161t-89.5 145.5t-89.5 144t-40 159.5q0 18 6.5 43t18.5 48.5t30.5 40t41.5 16.5t22 -17q0 -33 -21.5 -63.5t-21.5 -65.5q0 -57 46 -101t104 -44 q41 0 72.5 16.5t52 44t31 63.5t10.5 73q0 39 -19.5 67.5t-48.5 45t-64.5 24.5t-66.5 8q-66 0 -110 -16.5t-69.5 -49t-35.5 -81t-10 -109.5l-9 -18q-25 20 -50 49.5t-44.5 64.5t-33 71t-13.5 71q0 23 7.5 45t27.5 39q18 -2 39 -2h43q70 0 149.5 9t145 38.5t109.5 83t44 139.5 q0 55 -22.5 99t-60 76t-86 49.5t-99.5 17.5q0 -25 34 -39.5t76 -34t75.5 -50t33.5 -87.5q0 -41 -26.5 -54.5t-59.5 -13.5q-55 0 -107 19.5t-101.5 48t-96.5 59.5t-90 55q-104 55 -222 102.5t-239 47.5q-98 0 -195.5 -31t-174 -90t-125 -144t-48.5 -192q0 -72 26 -132 t70 -104.5t104.5 -70t131.5 -25.5q45 0 96.5 10.5t98.5 31t88 52t65 72.5v4q0 10 -7 12.5t-13 2.5q-2 0 -6 -1t-6 -1q-61 -68 -136 -105t-167 -37q-49 0 -100.5 13.5t-92.5 40t-67.5 67.5t-26.5 98q0 55 23.5 94.5t60.5 64t85 35.5t97 11q57 0 113.5 -13t109.5 -36 q16 -8 53 -23.5t83.5 -36t95.5 -43t90 -41t67.5 -29.5t26.5 -13v-4q-10 -27 -30.5 -50.5t-45 -45t-47 -43t-35.5 -44.5q-33 -47 -54 -108.5t-21 -120.5l51 -186q0 -2 8 -16.5t20.5 -33t24.5 -37t20 -30.5q35 -49 75 -97.5t75 -100.5t58.5 -108.5t23.5 -119.5v-4 q-25 -152 -118 -226.5t-236 -74.5q-55 0 -108.5 17t-96.5 51t-69.5 82t-26.5 110q0 70 33.5 131t74.5 123.5t75 128t34 143.5q0 133 -65.5 214t-207.5 81q-113 0 -192.5 -54.5t-141.5 -146.5q-6 -10 -15 -29.5t-9 -31.5t16 -12h8q14 35 38 72.5t54.5 69.5t68.5 52.5t81 20.5 q33 0 45 -20.5t12 -49.5t-12 -57.5t-30.5 -56t-39 -52t-34.5 -47.5q-43 -63 -66.5 -135t-23.5 -150z" />
<glyph unicode="G" horiz-adv-x="1814" d="M20 762q0 -84 19.5 -157t54.5 -148q55 -127 150.5 -217t212 -146.5t249 -83t263.5 -26.5q84 0 178 18t185 54t175 89.5t147.5 122t101.5 152.5t38 180q0 111 -32.5 194t-125.5 142q-10 6 -33.5 14t-50 15.5t-46 13.5t-19.5 12q0 10 29.5 27.5t65.5 45.5t65.5 67.5 t29.5 95.5q0 45 -25.5 77.5t-57 55t-57.5 39t-26 26.5q0 18 22.5 30.5t48.5 23t48.5 19.5t22.5 24q0 10 -6.5 11t-14.5 1h-12q-43 -12 -110.5 -35.5t-131 -59.5t-109.5 -85t-46 -111q0 -59 31.5 -96t74.5 -78q0 -4 1 -12t1 -13q0 -31 -20.5 -56t-49 -45.5t-60.5 -37 t-54 -26.5h-4q-6 0 -24.5 26.5t-38 60t-36 64.5t-20.5 39q-92 123 -92 213q0 14 6 33.5t17.5 37t26.5 29t34 11.5q20 0 32.5 -17.5t22.5 -38t23.5 -38t35.5 -17.5v18q-23 33 -45 67t-22 50q0 20 17.5 31.5t39 22t39 22.5t17.5 35q-37 0 -73 -24.5t-63 -45.5h-12 q-16 0 -33.5 10.5t-35 22.5t-35 24.5t-33.5 18.5q-37 10 -51.5 13t-36.5 3h-45q-166 0 -301 -62.5t-232.5 -170t-151 -250.5t-53.5 -305zM467 756q0 90 5 195.5t22 217.5q6 55 24.5 100.5t32.5 98.5l108 107q23 23 65 28.5t71 5.5q12 0 41.5 -7t60.5 -18t54.5 -26.5 t23.5 -32.5q0 -6 -1 -9t-9 -7q-63 -47 -124 -95t-107 -105.5t-73.5 -125t-27.5 -151.5q0 -76 40 -142.5t89 -132t89 -136t40 -152.5q0 -37 -11.5 -54.5t-50.5 -17.5q-66 0 -104.5 44t-60 97.5t-30.5 97.5t-18 44h-10q0 -158 76 -245t236 -87q63 0 121.5 28.5t102.5 75.5 t70.5 107.5t26.5 122.5q0 61 -24.5 123.5t-51.5 115.5v8q0 14 10.5 25.5t25.5 19t31.5 10.5t29.5 3q45 0 69.5 -40t35.5 -92.5t13 -104.5t2 -79q0 -113 -20.5 -213t-70.5 -176t-134 -121t-213 -45q-162 0 -256 68t-143 174.5t-62.5 237.5t-13.5 260z" />
<glyph unicode="H" horiz-adv-x="1699" d="M467 -164q0 -68 26.5 -121t71.5 -89t104.5 -54t123.5 -18q94 0 180 21.5t160 86.5q8 8 22 21.5t27.5 27t22.5 23.5l9 10v16h-16q-41 -37 -83 -69.5t-88 -58t-97 -40t-109 -14.5q-53 0 -110.5 13.5t-103.5 42t-75.5 73.5t-29.5 109q0 14 8 32.5t21.5 36t28.5 29.5t32 12 h108q47 -27 82 -54.5t76 -86.5h25l465 250q164 104 247.5 234t83.5 296q0 121 -42 213t-114.5 153.5t-171 92.5t-212.5 31q-63 0 -120.5 -19.5t-112 -49.5t-105.5 -64.5t-101 -65.5q-2 -2 -11 -5t-13 -3h-8q-25 16 -55.5 59t-57.5 95.5t-44 108.5t-17 101q0 31 16 64 t42 59.5t58.5 43t63.5 16.5q2 0 9 -10.5t16.5 -24.5t18.5 -30.5t15 -26.5q49 -59 120 -104.5t151 -45.5q49 0 104 14.5t98 36.5q33 16 83 53t96.5 80t80 89.5t33.5 80.5q-18 0 -38.5 -23.5t-49.5 -51t-70 -50t-102 -22.5t-110.5 35t-84 78t-55 77.5t-26.5 34.5h-5 q-76 -45 -148.5 -84t-150.5 -74q-76 -35 -160.5 -70.5t-156.5 -84.5t-119 -118t-47 -169q0 -74 22.5 -136.5t56.5 -119.5t73 -109.5t72.5 -105.5t56 -107.5t22.5 -115.5q0 -33 -13 -58.5t-35.5 -44t-51.5 -28.5t-60 -10q-14 0 -31.5 1t-32.5 7t-25.5 17t-10.5 30v20 q43 47 67.5 89t24.5 108q0 61 -37.5 103t-103.5 42q-39 0 -66.5 -16t-46 -43t-28 -60.5t-9.5 -66.5q0 -39 7.5 -66.5t20.5 -52t35.5 -46t53.5 -48.5q53 -29 95 -40t96 -11q76 0 159.5 35.5t153.5 95t115 135.5t45 156q0 45 -15.5 81.5t-35 67.5t-35 57.5t-15.5 51.5 q0 18 22.5 31.5t52.5 21.5t58.5 11t43.5 3q70 0 144.5 -31.5t136 -84t101 -121t39.5 -144.5v-108q0 -123 -24.5 -223.5t-116.5 -184.5h-16q-12 0 -26.5 14.5t-29 33t-28 38t-25.5 31.5q-35 39 -91 65.5t-110 26.5q-72 0 -138 -25.5t-116.5 -71.5t-80 -107.5t-29.5 -135.5z " />
<glyph unicode="I" horiz-adv-x="1501" d="M131 168q35 0 60.5 -40t45 -93t33 -105.5t25.5 -76.5q37 -84 90 -141.5t116.5 -92.5t137.5 -50t154 -15q123 0 241.5 35.5t211.5 105t151.5 174t58.5 240.5q0 86 -25.5 167.5t-63.5 159.5t-81 153t-80 150v52q0 18 4 30.5t21 26.5h39q57 0 89 -32t52.5 -69.5t34.5 -69.5 t37 -32q0 51 -21.5 97t-56.5 81t-82 55.5t-96 20.5q-74 0 -139.5 -22.5t-114.5 -65.5t-78 -104.5t-29 -137.5q0 -45 13.5 -107.5t35.5 -103.5l209 -372q29 -53 42.5 -91t23.5 -92v-4q0 -47 -19.5 -81.5t-51.5 -58.5t-71.5 -36t-80.5 -12q-98 0 -152.5 52t-88.5 131 t-59.5 170t-64.5 170t-102.5 131t-175.5 52q-88 0 -167 -29.5t-120 -111.5q-4 -8 -10.5 -23.5t-6.5 -17.5v-184q0 -14 7.5 -39t27.5 -25q0 39 -5 76t-5 78q0 20 3 42.5t12.5 41t26.5 31t44 12.5zM102 1139q0 -78 24 -146.5t69 -122t109.5 -84t148.5 -30.5q16 0 61 7t92 21.5 t84 35t37 48.5q0 2 -3 7.5t-7 5.5h-4q-29 0 -57.5 -23.5t-53.5 -34.5q-37 -16 -70.5 -21t-74.5 -5q-66 0 -124.5 23.5t-101.5 65.5t-68.5 99t-25.5 125q0 49 19.5 89t51.5 68.5t74 45t87 16.5q74 0 137 -33.5t120.5 -81t112 -98.5t111.5 -86q70 -41 144.5 -58.5t156.5 -17.5 q80 0 137.5 42t93 106.5t52 140.5t16.5 143q-27 0 -34 -30.5t-13 -68.5t-22.5 -68.5t-61.5 -30.5t-79 23.5t-62.5 56t-55 67.5t-57.5 60q-94 78 -203.5 135t-236.5 57q-86 0 -179.5 -34.5t-169 -95t-125 -142.5t-49.5 -176z" />
<glyph unicode="J" horiz-adv-x="1492" d="M211 125q10 -33 27.5 -83t34 -98t25.5 -80t5 -28q27 -70 77 -117t112.5 -76.5t133 -43t140.5 -13.5q129 0 231.5 30t208.5 95q2 0 8.5 3t8.5 5q51 49 93 94.5t70.5 96.5t45 109.5t16.5 132.5q0 68 -18.5 133t-47 126.5t-64.5 121t-69 116.5q-18 29 -38.5 62.5t-20.5 68.5 q0 45 17.5 73t66.5 28q45 0 75.5 -33t51 -72t33 -71.5t22.5 -32.5q16 0 17 14q0 39 -16.5 77t-43.5 69.5t-60.5 55t-70.5 34.5q-10 2 -41 2h-39q-68 0 -131 -21.5t-112.5 -61.5t-79 -98.5t-29.5 -132.5q0 -59 10 -112.5t39 -106.5l242 -448q25 -49 24 -99q0 -47 -18.5 -83.5 t-50 -63.5t-72.5 -40t-86 -13q-76 0 -122 27.5t-74.5 72.5t-45 102.5t-30 118t-28.5 117.5t-44 102q-53 82 -124 124t-148 42q-164 0 -233 -83t-69 -242v-7q0 -27 11.5 -54t13.5 -38h16q0 37 -4 74t-4 74q0 20 3 42.5t11.5 41t25 31t42.5 12.5q29 0 47.5 -25.5t28.5 -50.5z M113 1167q0 -72 21.5 -140.5t63.5 -121.5t102 -85t138 -32q23 0 70 6.5t94 19.5t82 36.5t35 60.5q-25 0 -39 -13t-37 -26q-39 -23 -84 -37t-90 -14q-66 0 -124 22.5t-101 64.5t-67.5 98.5t-24.5 123.5q0 47 14 89.5t40.5 75t65.5 51t88 18.5q37 0 66 -8t59 -27 q80 -49 152 -109.5t145.5 -113.5t155.5 -90t182 -37q92 0 153.5 37t99.5 98.5t53.5 139t15.5 157.5q-23 0 -28 -30.5t-10 -68.5t-19.5 -69t-57.5 -31q-23 0 -50.5 8.5t-45.5 24.5q-78 80 -149.5 148.5t-149.5 119t-168 79t-205 28.5q-72 0 -149.5 -39t-144 -102.5 t-109.5 -144.5t-43 -167z" />
<glyph unicode="K" horiz-adv-x="1525" d="M20 266q0 -63 32 -113.5t81 -84t108.5 -51t114.5 -17.5q76 0 140.5 23.5t112.5 68.5t75 110.5t27 149.5q0 133 -60 262q-14 20 -28.5 51t-14.5 40q0 12 8.5 17t19.5 7t23 2h21q23 0 46.5 -5t41.5 -21q55 -45 74.5 -103.5t25.5 -124t9.5 -133.5t23 -130t66.5 -115.5 t141 -90.5l5 -1t7 -1q16 0 45 21.5t41 38.5l279 208q12 0 12 15q0 18 -12 18q-16 0 -29.5 -8t-28 -17.5t-30 -17.5t-33.5 -8q-35 0 -68.5 27.5t-40.5 64.5l-41 307q-4 33 -21 52.5t-38.5 35t-44.5 28.5t-37 34q12 12 27 16l223 49q6 2 7 8.5t1 12.5v12q0 90 -31.5 172 t-89 143.5t-134.5 97.5t-169 36q-61 0 -119.5 -17.5t-106.5 -49.5t-84 -80t-54 -109q-14 -53 -15.5 -100.5t-9.5 -100.5q-23 14 -36 44t-20 63.5t-9 66.5t-2 55q0 92 37.5 163t99 119t141.5 72.5t164 24.5q106 0 201.5 -38t171 -104.5t127 -156.5t71.5 -192q0 -16 1 -39 t6.5 -42.5t13.5 -32.5t22 -13q0 106 -25.5 199.5t-84.5 185.5q-57 86 -125 141t-148 86t-170 42t-192 11q-125 0 -250 -36.5t-225.5 -108.5t-163 -177.5t-62.5 -240.5q0 -47 7.5 -99t24 -101.5t42 -94.5t60.5 -78l206 -198q31 -14 57.5 -40t47 -58.5t33 -67.5t12.5 -68 q0 -57 -41 -99t-100 -42q-16 0 -35 4t-35 12.5t-26.5 21.5t-10.5 34q0 41 16.5 78.5t16.5 80.5q0 66 -40 113t-106 47q-78 0 -124 -44t-46 -122zM575 772q-10 51 -13 80t-3 72q0 41 15.5 79.5t41 68.5t61.5 48.5t79 18.5q49 0 87 -24.5t63.5 -62.5t38.5 -84t13 -89v-33 q0 -2 -45 -15.5t-104 -29t-116.5 -27.5t-82.5 -12h-12q-21 0 -23 10z" />
<glyph unicode="L" horiz-adv-x="1267" d="M268 274q72 -78 138.5 -131t132 -84.5t135 -45t149.5 -13.5q76 0 145.5 36t123 94t85 132t31.5 150q-18 0 -28.5 -31t-30 -68t-57 -67.5t-111.5 -30.5q-61 0 -114.5 22.5t-101.5 56.5t-94 70.5t-96 65.5q-49 31 -108 47.5t-115 28.5l-8 8q16 23 37.5 33t44.5 24 q37 23 70.5 49.5t61.5 59.5t44 72t16 84q0 51 -19 93t-49 78.5t-64.5 70.5t-64.5 71t-49.5 78t-19.5 90q0 33 16.5 68.5t43 65.5t61.5 48.5t70 18.5h174q39 0 75.5 -20.5t66.5 -50.5t47.5 -62.5t17.5 -55.5v-33q0 -66 -31 -116t-69 -97t-68.5 -97t-30.5 -116 q0 -59 18.5 -114.5t52 -98.5t84 -68.5t113.5 -25.5q31 0 75 13.5t84 37t68.5 55t28.5 68.5h-18l-109 -106q-12 -12 -34.5 -19.5t-38.5 -7.5q-29 0 -52.5 13.5t-23.5 46.5t16.5 60.5t40 52t49 47t43.5 46.5q84 111 84 254q0 98 -53 179t-135 137.5t-180.5 87.5t-186.5 31 q-100 0 -201.5 -28t-184.5 -83t-135 -140t-52 -198q0 -68 22.5 -124t59.5 -105.5t81 -94.5t87 -90q12 -14 26.5 -35.5t14.5 -42.5q0 -35 -21.5 -58t-52.5 -41.5t-63.5 -35t-53.5 -34.5q-29 -25 -57.5 -57t-52 -68.5t-38 -76.5t-14.5 -81h21q8 25 18.5 50.5t25.5 48 t36.5 36.5t52.5 14q29 0 52 -13.5t46 -27.5z" />
<glyph unicode="M" horiz-adv-x="2254" d="M154 217q29 0 68.5 -35t79.5 -78t72 -77.5t44 -34.5t16 8q72 106 164 212.5t174 215.5t138.5 222.5t56.5 238.5q0 113 -17.5 220.5t-34.5 217.5v16q0 31 21.5 66t56.5 35q43 0 71 -34t45 -88t26.5 -119.5t13.5 -130t5 -121t3 -89.5v-430q0 -4 1 -18.5t2 -31.5t3 -31.5 t2 -18.5v-19q0 -14 -3 -28.5t-13 -18.5q-31 25 -70 59.5t-74.5 65.5t-63.5 52.5t-34 21.5q-4 0 -21.5 -18.5t-38 -45l-41 -53t-32.5 -41.5q-10 -31 -42 -67.5t-66.5 -73.5t-62.5 -70t-28 -55q0 -16 13 -16q16 0 36.5 28.5t42 62.5t43 62.5t44.5 28.5h4q59 -49 122.5 -107.5 t127.5 -107.5h8l16 16q6 8 24.5 30.5t38 48.5t38 47.5t24.5 31.5q8 33 43 62.5t55 54.5q70 82 126.5 154.5t96.5 149.5t62.5 167t22.5 207q0 78 -8.5 155.5t-8.5 155.5q0 27 7.5 57.5t22.5 58t38.5 46t56.5 18.5q39 0 56.5 -41t24.5 -96t9 -108.5t8 -78.5q8 -29 31 -48 t45 -36q14 -10 46 -17t64 -12t56.5 -11.5t24.5 -12.5v-4q-10 -10 -32 -19.5t-46.5 -17.5t-48 -16t-39.5 -14q-80 -33 -125 -78t-67.5 -103.5t-27.5 -128t-5 -149.5q0 -102 11 -173t36.5 -121t67.5 -89t102 -78h8q2 2 8 4t8 4l348 264v27q-14 0 -26.5 -8t-24.5 -17.5 t-26.5 -17.5t-30.5 -8q-37 0 -60.5 23.5t-37 61.5t-19.5 86t-8 95t-1 89t1 69v51q0 53 7 108.5t36 96.5q14 20 46 31.5t63.5 19.5t56 14t24.5 19v8q-16 2 -35.5 4t-38 9t-31.5 19.5t-20 32.5q0 14 -1 53.5t-2 81.5t-3 79.5t-2 52.5v24q-35 96 -109.5 135t-172.5 39 q-59 0 -113.5 -19.5t-101.5 -53.5q-10 -8 -21.5 -25.5t-24 -36t-22.5 -33t-18 -14.5q-10 0 -29 20.5t-44.5 48t-55 55.5t-58.5 42q-33 16 -76 20.5t-77 4.5q-59 0 -124 -13.5t-106 -60.5q-4 -6 -15 -24.5t-24.5 -40t-24.5 -38.5l-10 -16q-2 0 -4 1t-4 1q-78 92 -169 141.5 t-218 49.5q-96 0 -175 -40t-134 -106.5t-86 -151.5t-31 -176q0 -45 6.5 -90t34.5 -84q18 -25 56 -49t76 -50t65.5 -53.5t27.5 -58.5q0 -33 -33.5 -52t-74.5 -30.5t-75 -18.5t-34 -13q0 -10 11.5 -16.5t17.5 -6.5q57 0 118.5 24.5t113 65.5t83 95.5t31.5 113.5v25 q0 78 -23.5 130t-60.5 88t-78 59.5t-77.5 45t-60 45t-23.5 60.5q0 27 12 48t31.5 37.5t43 26t48.5 9.5q27 0 45 -2t43 -17q61 -57 100 -124.5t60.5 -146.5t29.5 -168t8 -190v-208q0 -10 1.5 -50.5t3.5 -86.5t3 -86t1 -50v-6q0 -12 -17 -12q-2 0 -5 1l-3 1l-215 198l-4 1 q-4 2 -8 2q-6 0 -28.5 -24t-50.5 -57.5t-57.5 -71.5t-50.5 -65q-16 -20 -37.5 -40.5t-42 -42t-34 -45t-13.5 -50.5q27 0 43.5 18.5t28.5 42t26.5 42t37.5 18.5z" />
<glyph unicode="N" horiz-adv-x="1740" d="M141 223l4 -2q14 0 49 -34.5t75 -77.5t77 -78t55 -35q2 0 5 1l4 1l399 389q16 23 39.5 43.5t34.5 40.5q76 104 96 232t20 253q0 78 -5 155t-5 155q0 27 5 57.5t18.5 57t35 44t54.5 17.5q37 0 54.5 -25.5t25.5 -66.5t14 -90.5t19.5 -97.5t40 -89t75.5 -63q8 -4 29.5 -10.5 t45.5 -12.5t43 -13t21 -13q-10 -14 -29.5 -24.5t-40 -17t-40 -10.5t-29.5 -8q-96 -35 -148.5 -75t-77 -93t-28.5 -123.5t-4 -169.5v-75q0 -49 3 -87t15.5 -73t38 -69t68.5 -73q23 -18 47.5 -37.5t57.5 -19.5q18 0 56 22.5t79 53.5t79.5 61.5t61.5 44.5q14 12 34.5 22.5 t37 22t29 23.5t12.5 27q-35 0 -62.5 -18.5t-62.5 -18.5q-43 0 -70 22.5t-40 58t-17 77.5t-4 83q0 27 1 49.5t1 38.5v35q0 43 3 101.5t16 110.5t42 92t80 47q41 4 72.5 5t68.5 11v8q0 12 -8 16q-45 0 -71.5 11.5t-41 30t-18.5 44t-4 56.5q0 20 1 41.5t1 44.5v28 q-4 63 -29.5 115.5t-67.5 89.5t-96.5 57.5t-115.5 20.5q-80 0 -145.5 -21.5t-116.5 -86.5q-6 -8 -11.5 -22.5t-11.5 -29t-12 -28t-17 -19.5q-29 23 -52 60t-46 65q-23 25 -62.5 41.5t-85.5 27.5t-90.5 16t-70.5 5q-94 0 -186.5 -28.5t-164 -83t-116.5 -134t-45 -184.5 q0 -72 22.5 -136t77.5 -114q18 -16 50 -32.5t64 -35t55.5 -40t23.5 -49.5q0 -45 -33 -65.5t-73 -33t-72.5 -22.5t-32.5 -33q72 0 143.5 26.5t127.5 75t92 113t36 139.5q0 72 -24.5 119t-61.5 79t-80 54.5t-79.5 45t-61.5 50t-25 72.5q0 59 47.5 93t102.5 34q57 0 99 -33.5 t72 -85t49 -111t30.5 -111.5t16.5 -90t5 -42q4 -41 6 -74.5t3 -76.5t1 -105v-151v-48v-71q0 -39 -1 -73t-1 -48v-12q0 -10 -3 -33t-17 -23q-25 23 -62.5 59t-73.5 69.5t-65.5 58t-40.5 24.5q-2 0 -6 -1l-4 -1l-315 -323q-6 -6 -8.5 -16.5t-2.5 -18.5q23 0 40.5 16.5 t31.5 34.5t26.5 34.5t24.5 16.5z" />
<glyph unicode="O" horiz-adv-x="1712" d="M197 332q55 0 104 -22.5t96 -55.5t91 -68.5t87 -60.5q39 -23 87.5 -45.5t99.5 -39.5t102 -28.5t97 -11.5q158 0 291.5 61.5t232 165t155 239.5t56.5 288q0 348 -172 551.5t-516 253.5q-33 4 -64 10t-63 6q-117 0 -242 -29.5t-229.5 -93t-172 -161t-67.5 -232.5 q0 -57 22.5 -103.5t48 -87.5t48 -82t22.5 -86q0 -27 -20.5 -49t-46.5 -22q-43 0 -73 21.5t-51.5 54t-34.5 70.5t-24 71q0 8 -8 8h-4q-12 0 -12 -16q0 -57 21.5 -105.5t58.5 -82.5t86 -52t104 -18q106 0 193.5 41t142.5 133l10 20t6 14v158q0 45 -27.5 92t-60 96.5 t-60.5 98.5t-28 98q0 18 7.5 47t22.5 56.5t40 47t59 19.5q8 0 15.5 -1t7.5 -11v-4q0 -4 -4 -20.5t-9.5 -35t-9.5 -34t-4 -19.5v-16q0 -96 57.5 -148.5t143.5 -74.5q47 2 97 3t104 1q102 0 202.5 -11.5t186.5 -48.5t148.5 -106.5t90.5 -186.5v-79q0 -100 -20.5 -184.5 t-67.5 -146t-121.5 -96t-183.5 -34.5q-106 0 -196.5 47t-177.5 103.5t-179 103.5t-203 47q-45 0 -94 -6t-92 -21q-43 -12 -93 -47t-93 -81t-72 -99t-29 -102q14 0 28.5 21.5t33 48t46.5 48t73 21.5z" />
<glyph unicode="P" horiz-adv-x="1748" d="M342 283q16 0 52 -7.5t74 -18.5t71.5 -26.5t44.5 -31.5l8 -9q2 0 8 -44t16.5 -108.5t22.5 -141t26.5 -141t30 -108.5t29.5 -44h66q4 0 11 19.5t15 44t14.5 47t10.5 30.5q2 6 11 25.5t13 23.5l66 232q8 27 31 26q23 0 43 -8t41.5 -17.5t44 -17.5t47.5 -8q104 0 205.5 62.5 t181.5 158.5t129 212t49 224q0 57 -16.5 93t-45 60t-69.5 40t-92 37q-16 10 -21.5 17t-5.5 22q0 12 10.5 23.5t24.5 13.5l231 32q2 0 4 3t5 6v8q-2 2 -4.5 5t-4.5 3h-108q-35 0 -43 30.5t-8 65.5q0 53 10 103.5t10 103.5q0 74 -27.5 119t-71.5 69.5t-98.5 32.5t-107.5 8 q-59 0 -104.5 -9t-98.5 -34q-20 -8 -39.5 -32.5t-36 -50t-29 -46t-16.5 -20.5h-4q-37 29 -64.5 65.5t-74.5 59.5q-78 39 -156 49t-164 10q-92 0 -177 -28.5t-149.5 -82t-103.5 -130t-39 -173.5q0 -37 7.5 -79.5t23 -84.5t42 -76t63.5 -50q14 -6 41.5 -17.5t55.5 -27t47 -35 t19 -43.5q0 -33 -25.5 -49.5t-56 -26.5t-56 -21.5t-25.5 -31.5q63 0 124.5 28.5t110.5 75.5t80 107.5t31 126.5q0 68 -26.5 130t-82.5 105q-25 20 -59.5 40t-65 44.5t-52 54t-21.5 70.5q0 33 16 53.5t42 32.5t55.5 16.5t56.5 4.5q68 0 110.5 -34t67 -88.5t34 -123t11.5 -139 t0 -137t-2 -113.5v-51t-1 -79t-1 -79v-51q-4 -10 -26.5 -16.5t-50.5 -11.5t-53.5 -9t-35.5 -6q-55 -16 -97 -58.5t-71 -97.5t-43 -115.5t-14 -111.5q14 0 22 19.5t21.5 44t37 44t68.5 19.5zM975 473q0 6 -1 24.5t-1 39.5v38v27q0 152 5 299.5t5 300.5v51q2 33 10 72t23.5 73 t42 56.5t69.5 22.5q37 0 52.5 -23.5t19.5 -60.5t4 -84t4 -92.5t19.5 -86t52.5 -67.5q6 -4 30.5 -16.5t51.5 -24.5t48.5 -22.5t21.5 -12.5q0 -10 -44.5 -20.5t-98.5 -35t-98 -73.5t-44 -139q0 -16 8 -36.5t20.5 -41t27 -37t28.5 -22.5l231 -125q39 -20 57.5 -54t18.5 -75 q0 -45 -36 -83t-83 -38q-53 0 -125.5 43t-152.5 90q-18 10 -46 25.5t-53.5 32t-45 36t-21.5 39.5z" />
<glyph unicode="Q" horiz-adv-x="1980" d="M246 266q31 0 55.5 -7t47 -19.5t45 -27.5t48.5 -30q53 -31 111.5 -62.5t120 -58t125 -44t129.5 -17.5h4q20 2 54 6t66.5 8t57.5 7.5t29 3.5q57 8 109 31.5t100.5 56t91.5 71.5t80 80q10 10 18 24.5t17.5 27t19.5 21.5t27 9q0 -29 -2.5 -60.5t-2.5 -64.5q0 -41 5.5 -79 t22.5 -67.5t50 -48t86 -18.5q61 0 101.5 41t62 99.5t29.5 122t8 106.5q0 8 -1 34.5t-1 37.5v6q0 20 -16 20q-8 0 -12.5 -32.5t-15.5 -72.5t-32.5 -73t-64.5 -33q-51 0 -80 30t-42.5 73t-16.5 89t-3 81q0 68 5.5 134t5.5 134q0 186 -67 328.5t-180.5 238.5t-265 145.5 t-323.5 49.5q-111 0 -239 -32t-238.5 -94.5t-183 -155.5t-72.5 -214q0 -66 29.5 -123t66.5 -107t66.5 -96.5t29.5 -91.5q0 -27 -13 -54.5t-48 -27.5q-49 0 -86 26t-62.5 64.5t-42 84t-22.5 83.5q-6 10 -19 11q0 -61 19.5 -118.5t55.5 -102t88 -72t118 -27.5q63 0 128 25.5 t116 71t83.5 103.5t32.5 126q0 74 -33.5 132t-74.5 110.5t-75 105.5t-34 119q0 25 8.5 54.5t25 56t40 44t51.5 17.5q16 0 17 -15q0 -31 -12.5 -60.5t-12.5 -61.5q0 -51 20.5 -92.5t55.5 -70t79 -44t93 -15.5h340q92 0 182 -20.5t160 -65.5t113 -117.5t43 -174.5 q0 -88 -20.5 -175.5t-67 -158t-119 -114.5t-174.5 -44q-96 0 -183.5 39t-172.5 86t-173 86t-184 39q-68 0 -136.5 -16.5t-130 -48t-113.5 -79t-85 -106.5q-16 -31 -33.5 -60.5t-17.5 -66.5q18 0 31.5 21.5t33 47t52.5 47t94 21.5z" />
<glyph unicode="R" horiz-adv-x="1740" d="M1141 225q6 -35 24.5 -75.5t43 -77.5t56 -61.5t66.5 -24.5q18 0 51 18.5t68 44t68.5 50t52.5 36.5q23 12 48.5 28.5t47 32t35.5 32t14 28.5q-18 0 -34.5 -7t-32 -16.5t-31.5 -16.5t-37 -7q-31 0 -45 21.5t-20.5 55t-5.5 71.5t1 73q0 78 5.5 156t5.5 155q0 35 -17.5 73 t-34.5 67v12q0 12 5.5 18.5t21.5 6.5h207q12 0 17 13t5 21q-25 0 -51 2t-47.5 11.5t-35 28t-13.5 50.5q0 37 4 74t4 74q0 70 -21.5 135.5t-61.5 115.5t-99 79.5t-135 29.5q-39 0 -82 -7t-82 -22.5t-72 -41t-51 -62.5q-2 -4 -6 -15t-9 -24.5t-12.5 -26t-15.5 -16.5 q-23 16 -34 44t-32 46q-72 72 -176 104t-202 32q-86 0 -171 -32t-153 -87t-110 -132t-42 -169q0 -59 12.5 -119.5t53.5 -110.5q18 -23 53 -44t68 -44.5t57.5 -48t24.5 -53.5q0 -35 -33 -54.5t-73 -31.5t-72.5 -18.5t-32.5 -14.5l8 -12q4 -2 14 -2h17q72 0 136 24.5 t112.5 69.5t76 106.5t27.5 135.5q0 61 -22.5 105t-55.5 77t-72.5 58.5t-72.5 50t-55.5 52t-22.5 66.5q0 68 49 97.5t111 29.5q61 0 104 -36.5t71.5 -94t45 -125t24 -130t9.5 -109.5t2 -62v-538q0 -51 -10.5 -109.5t-35 -108t-66.5 -82t-103 -32.5q-20 0 -45 6t-46.5 18.5 t-36 32t-14.5 43.5q0 33 25 49q76 6 130 41t54 119q0 66 -49 111t-115 45q-68 0 -128 -30t-83 -103v-66q0 -72 26 -128t70 -94t103 -57.5t129 -19.5q61 0 122.5 17.5t115.5 48.5q92 55 154.5 128.5t103.5 158.5t65.5 180.5t40.5 195.5q2 10 5 42t3 42l9 8l11 1t15 1 q47 0 70.5 -19.5t36.5 -66.5v-82q0 -55 -5.5 -109t-5.5 -110q0 -10 1.5 -39.5t3.5 -63.5t4 -66t2 -44zM999 905q-6 84 -8 152.5t-2 159.5q0 31 1 73.5t12.5 80.5t35 64.5t68.5 26.5q27 0 43 -16t24.5 -39t11.5 -49.5t5 -44.5q4 -59 12 -113.5t30.5 -102.5t64.5 -86t116 -63 l8 -12q0 -10 -44 -20.5t-105.5 -19.5t-126 -17.5t-105.5 -14.5q-20 4 -28.5 12.5t-12.5 28.5z" />
<glyph unicode="S" horiz-adv-x="1574" d="M20 811q0 -119 30 -234.5t87.5 -218t143.5 -184.5t196 -131q78 -35 170 -42t176 -7q139 0 267.5 41t225.5 119.5t155.5 195.5t58.5 268q0 106 -42 183.5t-112.5 126.5t-162 71.5t-189.5 22.5q-72 0 -154 -12.5t-145 -53.5l-256 -174q-23 -16 -44.5 -21t-47.5 -5 q-59 0 -92 42t-33 99q0 55 26.5 92t65.5 59.5t83 32t79 9.5q39 0 62.5 -5.5t41 -12.5t30.5 -12t32 -5q12 0 12 16t-22.5 27.5t-52 18.5t-58.5 10t-41 3q-98 0 -179 -47t-112 -143v-68q0 -90 33 -158.5t90 -114.5t134 -69.5t163 -23.5q96 0 189.5 30.5t170.5 88.5 q41 29 80 63.5t80 64t87 50t102 20.5q76 0 112.5 -47t36.5 -121q0 -72 -37 -120t-97 -80.5t-135 -50t-151 -25.5t-144.5 -10t-115.5 -2h-61q-68 0 -141.5 3t-144.5 16t-135.5 40t-115.5 74q-78 72 -122 147.5t-44 183.5q0 92 37 171t98.5 137.5t142.5 91.5t171 33 q59 0 115.5 -14.5t110.5 -36t107.5 -48t104.5 -51.5q51 -27 110.5 -31t114.5 -4q70 0 139.5 28t126 77t91 114.5t34.5 141.5q-20 0 -32.5 -19.5t-27.5 -44t-35.5 -44t-55.5 -19.5q-41 0 -84 16.5t-85 40t-82 49t-73 43.5q-84 45 -165.5 68.5t-178.5 23.5q-147 0 -277 -61 t-228.5 -164.5t-155 -238t-56.5 -279.5z" />
<glyph unicode="T" horiz-adv-x="1509" d="M172 332q43 0 84 -17.5t79 -43t76 -54.5t74 -51q72 -43 143.5 -82t155.5 -59q33 -4 73 -11.5t85 -7.5q137 0 253 50t194 167q31 47 54 91t23 100h-18q-16 -53 -51 -106.5t-90 -76.5h-82q-16 0 -33.5 1t-34.5 8q-31 14 -88 39.5t-113.5 54t-98.5 55.5t-42 43q0 12 37 37 t81 62.5t81 89t37 116.5q0 70 -37 115t-87 80t-104.5 67.5t-89.5 79.5v13q0 37 35 36h16q49 -25 97.5 -50t97.5 -47.5t100 -37t109 -14.5q61 0 115.5 19.5t95.5 56.5t65.5 88t24.5 114q0 39 -26.5 82t-66.5 79t-85 59.5t-80 23.5q-16 0 -17 -20v-13q35 -12 76 -30.5t76 -44 t58.5 -60.5t23.5 -78q0 -23 -8 -34t-27 -27h-33q-45 0 -87 23.5t-82 55.5t-76.5 67.5t-69.5 60.5q-59 45 -119.5 83t-125 65.5t-133.5 44t-144 16.5q-90 0 -183.5 -29t-168 -85t-123 -139t-48.5 -192v-12q0 -8 3.5 -26.5t5.5 -40t5 -40t3 -26.5q14 -37 43 -66.5t63.5 -49 t73.5 -31t76 -11.5q41 0 74.5 5t68.5 28v4q0 10 -7 12t-13 2q-33 0 -62.5 -9t-64.5 -9q-96 0 -157.5 60.5t-61.5 152.5q0 59 20.5 97t55 59.5t80.5 30t98 8.5h61q27 -10 83 -29t111.5 -40.5t97.5 -44t42 -42.5q0 -16 -34 -41t-75 -59.5t-74.5 -85t-33.5 -119.5 q0 -53 22.5 -91t57 -67t73.5 -50.5t74 -42t57.5 -43t22.5 -50.5q0 -16 -10.5 -29.5t-26.5 -13.5q-8 0 -25.5 7t-41 18.5t-48 22.5t-47.5 19q-39 12 -63.5 18.5t-42 7.5t-33.5 1h-39q-88 0 -163.5 -26.5t-132 -77t-88.5 -123t-32 -164.5h21q2 27 11 57.5t25.5 57t40 43 t58.5 16.5z" />
<glyph unicode="U" horiz-adv-x="1492" d="M891 365h8q4 0 7 -27t9.5 -61.5t15.5 -70.5t27 -56q10 -12 31 -38t44.5 -50.5t47 -44t39.5 -19.5t50 26.5t75 66.5t86 85t84 82q27 25 43.5 34t16.5 44q-29 0 -49.5 -15.5t-49.5 -15.5q-51 0 -73.5 37t-29.5 94.5t-4 126t3 133.5v111q0 80 2 153.5t8 159.5 q2 43 26.5 65.5t51 33t49.5 15.5t23 15q0 6 -21.5 20.5t-49.5 31t-53.5 31t-33.5 20.5t-30.5 25.5t-29.5 25.5q-4 4 -21 26.5t-36.5 48t-37 46t-19.5 20.5q-6 0 -26.5 -25.5t-45 -59.5t-49.5 -64.5t-37 -42.5q-12 -10 -41 -25.5t-59.5 -32t-53 -30t-22.5 -19.5q0 -2 1 -5 l1 -3q49 -6 77.5 -20.5t45 -39t22 -60.5t5.5 -85v-4q-2 -2 -5.5 -8t-5.5 -8v-514l-8 -66q0 -4 -14.5 -21.5t-37 -38t-48 -41t-47.5 -32.5h-4q-14 0 -40 10t-51.5 25.5t-44 33t-18.5 29.5v566q6 27 7 56.5t1 59.5v199q-12 49 -31.5 86t-46 66.5t-60.5 56t-71 57.5 q-10 8 -16 12.5t-17 4.5h-8l-332 -332v-23q14 0 26.5 6.5t27 13.5t32 13t44.5 6q31 0 48 -19.5t26 -47t11.5 -58t2.5 -53.5q0 -27 -2.5 -43t-8.5 -45q0 -27 1 -91.5t1 -135.5v-131q0 -49 -1 -87t-3 -71t-6 -74q-20 -49 -59 -56t-90 -9q-2 0 -4.5 -3.5t-4.5 -5.5v-8 q2 -2 4.5 -5t4.5 -3q90 -49 166.5 -95t156.5 -112q8 -6 17.5 -20.5t19.5 -28.5t21.5 -24.5t21.5 -10.5h4q23 12 40.5 30.5t41.5 27.5z" />
<glyph unicode="V" horiz-adv-x="1648" d="M254 399q45 0 85 -19.5t75 -49t66.5 -63.5t62.5 -60q41 -37 89 -75t102 -66.5t111.5 -47t117.5 -18.5q115 0 231.5 42t210.5 116.5t155.5 178t67.5 226.5v17q0 59 -21.5 111t-70.5 87l-16 17q-29 14 -63 31.5t-62.5 37t-47 41t-18.5 43.5q0 12 12.5 34t28.5 22h10 q49 -10 95.5 -22.5t99.5 -12.5h4l25 5l16 3v8q-35 6 -59.5 31.5t-24.5 60.5q0 31 9 59.5t9 61.5q0 100 -39.5 188.5t-134.5 129.5q-10 4 -36.5 15t-38.5 11h-183q-53 0 -85.5 -29.5t-54 -66.5t-34 -66.5t-20.5 -29.5q-20 10 -31.5 34.5t-22.5 40.5q-61 78 -143 102.5 t-192 24.5q-72 0 -129.5 -7t-108.5 -26.5t-97 -54t-91 -88.5q-39 -45 -66 -105.5t-27 -119.5t19.5 -101t48.5 -72t61.5 -51.5t61.5 -43t48.5 -46t19.5 -57.5q0 -39 -31 -57t-67 -29.5t-66.5 -19.5t-30.5 -27q78 0 148.5 25.5t123 72t83 112t30.5 144.5q0 51 -19.5 87t-49 64 t-64.5 49.5t-64.5 45t-49 50t-19.5 65.5q0 61 44 96t103 35q72 0 116 -41t69.5 -104.5t35 -137t11.5 -139t-1 -114t-3 -56.5q0 -47 -2.5 -96t-7.5 -93t-15 -78t-27 -46q-78 -4 -138 -16.5t-108.5 -40t-88 -72.5t-78.5 -111q-14 -23 -25.5 -48.5t-11.5 -51.5h18 q10 25 24.5 52.5t34 49t45 35.5t56.5 14zM584 592v4q2 2 4 5t4 3q55 29 104 51.5t92 50t79 65.5t65 99q8 18 9 40t2 42.5t5 40t17 35.5v305q0 53 33.5 98.5t88.5 45.5q49 0 70 -41t28 -97.5t11 -114t18 -89.5q6 -16 23.5 -33t34 -32t30 -28.5t13.5 -25.5t-40 -29.5 t-89 -45.5t-89 -70t-40 -105q0 -59 29.5 -103.5t73.5 -80t95.5 -67.5t95.5 -64.5t73.5 -71.5t29.5 -90q0 -29 -14.5 -55.5t-38 -47t-52 -33t-57.5 -12.5q-63 0 -134 47.5t-140.5 110.5t-133 124.5t-110.5 90.5q-12 8 -43 19.5t-63.5 22.5t-58 21.5t-25.5 14.5z" />
<glyph unicode="W" horiz-adv-x="2213" d="M197 258q74 0 134 -39t118.5 -86t120 -86t137.5 -39q57 0 121.5 16.5t111.5 49.5q20 14 42 38.5t44.5 48t46 40t51.5 16.5q31 0 58.5 -12t52.5 -29.5t48.5 -38t47.5 -37.5q59 -43 123 -67.5t135 -24.5q109 0 213.5 47t185 126t131 181.5t50.5 212.5q0 59 -22.5 106.5 t-55.5 83.5t-72 62.5t-71.5 49t-55 41t-22.5 36.5v9q2 4 9 17t15.5 26.5t17.5 23.5t15 10h225q10 0 25.5 7.5t15.5 21.5v8q-23 0 -45 1t-40.5 7.5t-32 19.5t-15.5 40q-4 47 -5 82t-11 76q-20 74 -60 123t-94.5 78.5t-120 43t-133.5 13.5q-109 0 -192.5 -35t-161.5 -117h-10 q-16 0 -32.5 23.5t-40 52t-55.5 52.5t-75 24q-41 0 -76 -24t-62.5 -52.5t-45 -52t-23.5 -23.5h-4q-74 70 -158 111t-188 41t-194.5 -33t-156 -92.5t-103.5 -144.5t-38 -191v-33q0 -23 1.5 -47.5t7.5 -40.5q14 -45 58 -78t92 -60.5t86 -53t38 -56.5q0 -47 -28.5 -70.5 t-62.5 -37t-61.5 -24.5t-27.5 -32q74 0 136.5 35t109.5 91.5t73.5 125t26.5 135.5v66q-18 41 -40.5 72.5t-59.5 60.5q-25 18 -59 38.5t-65.5 45.5t-53 54.5t-21.5 70.5q0 33 18.5 58.5t47 41t60.5 23.5t60 8q72 0 111 -45t56.5 -113.5t20.5 -148.5t7 -150v-8q0 -8 -1 -12 t-7 -12q0 -14 1 -48t1 -73t-1 -73t-1 -48q0 -16 -3 -52t-11.5 -74t-20.5 -71t-31 -43h-24q-80 0 -139.5 -19.5t-105.5 -56t-81 -91t-66 -124.5q-14 -31 -24 -51t-10 -55q12 0 22 20.5t27.5 46t45.5 46t75 20.5zM1380 489q-8 2 -8 17v8q68 61 117 136t49 173q0 66 -13.5 114 t-51.5 107q-18 27 -49 59t-59 67.5t-48.5 73.5t-20.5 79q0 39 21.5 70.5t54.5 54t72 34t74 11.5q55 0 80.5 -38t38 -89t18.5 -104.5t24 -83.5q16 -31 48 -56.5t64 -44t55.5 -30t23.5 -15.5q0 -8 -39 -26.5t-86 -51t-86 -82t-39 -116.5q0 -70 28.5 -121t72.5 -91t94.5 -72 t94.5 -60.5t72.5 -58t28.5 -66.5q0 -49 -43 -77t-86 -28h-24q-8 0 -14.5 1t-14.5 7q-53 39 -103.5 88.5t-103.5 93.5t-112.5 77.5t-129.5 39.5zM526 506v8q0 6 30 21.5t69 33t75.5 35t49.5 27.5q100 78 146 188.5t46 235.5q0 70 -9 138.5t-50 149.5v17q66 84 174 84 q14 0 42.5 -5t58.5 -16.5t52.5 -26t22.5 -32.5q0 -16 -8 -23.5t-19 -21.5q-25 -37 -53.5 -79t-51 -87t-37.5 -92t-15 -94q0 -70 34.5 -123t77.5 -101.5t78 -97.5t35 -110q0 -51 -24.5 -98.5t-63.5 -84.5t-88 -58.5t-99 -21.5q-51 0 -93 16.5t-81 42t-76.5 55.5t-80.5 54 l-31 15.5t-38 18.5t-39 17.5t-34 14.5z" />
<glyph unicode="X" horiz-adv-x="1517" d="M621 338q8 0 17 -16.5t19.5 -38t19.5 -42t15 -28.5q4 -4 15.5 -16.5t24.5 -24.5t25.5 -24.5t18.5 -16.5q8 -8 36 -29.5t61.5 -45t65.5 -41t48 -17.5h4q2 2 8.5 4t8.5 4l356 291q14 16 34.5 28.5t40 26t33 30.5t13.5 42q-25 0 -50.5 -18.5t-56 -42t-67.5 -42t-84 -18.5 q-70 0 -121 34t-84 87t-48.5 118.5t-15.5 127.5q0 8 8.5 26.5t16.5 18.5h191q43 0 72.5 27.5t50 66.5t32.5 81t19 71q4 12 10 28.5t6 28.5q0 6 -2 12t-10 6q-10 0 -17.5 -9t-11.5 -22.5t-8 -25.5t-8 -18q-31 -41 -81 -51.5t-104 -10.5q-25 0 -48 1t-44 1h-55l-8 10 q-2 0 -4 25t-5 41v8q0 8 1.5 12t7.5 13v69q0 45 5 99.5t16 109.5t33.5 101.5t59.5 75t93 28.5q16 0 29.5 -5t13.5 -26q0 -12 -13.5 -29.5t-29 -40t-28.5 -48t-13 -56.5q0 -78 52 -125t126 -47q41 0 74.5 17.5t58 47t39 66.5t14.5 76q0 51 -20.5 95t-54 75t-79 48.5 t-96.5 17.5q-68 0 -117 -28t-84.5 -73t-60 -99t-43.5 -110q-6 0 -23.5 23.5t-38 54.5t-40 59.5t-31.5 38.5q-66 59 -145.5 90t-161.5 60q-10 2 -13.5 4t-4.5 3t-5 1h-14h-12l-392 -381v-43q18 0 41 18.5t52.5 40t65.5 40t83 18.5q66 0 119 -27.5t90 -73t56.5 -104.5 t19.5 -121q0 -8 -1 -26.5t-3 -22.5l-9 -8q-29 2 -54 3t-52 1q-53 0 -101.5 -13.5t-85 -48t-59 -94t-22.5 -149.5q25 0 37 18.5t27.5 42t44 42t85.5 18.5q16 0 33.5 -1t32.5 -1h24q10 0 27.5 -1t33 -2t26.5 -4l12 -2l8 -8q0 -2 1 -14t1 -29v-30v-25q0 -76 -3 -143.5 t-19.5 -128t-50.5 -114.5t-95 -104q-25 -23 -48.5 -33t-58.5 -10q-18 0 -38.5 7.5t-20.5 29.5q0 20 20.5 36t46 34t46 46t20.5 77q0 90 -58.5 134t-137.5 44q-86 0 -131.5 -58.5t-45.5 -140.5q0 -59 21.5 -104t57.5 -76t83 -46t101 -15h69q35 14 62.5 27.5t51 28.5t44 36.5 t41.5 56.5q8 14 18.5 40t19.5 52.5t17.5 46t14.5 19.5z" />
<glyph unicode="Y" horiz-adv-x="1558" d="M260 -244q0 -57 28.5 -97t75 -67.5t103.5 -43t115.5 -23.5t113 -10t92.5 -2q61 0 115.5 15t112.5 34q154 51 255 162.5t160.5 253t84 299t24.5 303.5q0 61 -2 132.5t-8 148.5t-19.5 154t-37.5 148q-23 70 -61 135.5t-90 116.5t-117.5 82t-143.5 31q-63 0 -100 -27.5 t-56.5 -59.5t-30 -59.5t-20.5 -27.5l-12 8q-78 92 -152 133t-176 41q-113 0 -204 -33t-155.5 -95t-100.5 -150.5t-36 -198.5q0 -84 21.5 -143.5t81.5 -108.5q20 -18 51 -33.5t57.5 -33t46 -40t19.5 -55.5v-29q-57 -80 -150 -108v-31q29 0 47.5 7.5t43.5 23.5 q98 59 145 152.5t47 207.5q0 39 -3 83t-24 79q-25 45 -69.5 74t-88.5 54.5t-76 57t-32 84.5q0 29 17.5 56.5t44 49t57.5 35t57 13.5q84 0 132.5 -49t72 -121t29.5 -150.5t6 -136.5v-8q0 -4 -1 -22.5t-3 -40t-3 -40t-1 -22.5q0 -23 -1 -87t-5.5 -135t-14.5 -130t-28 -72 q-27 -14 -57.5 -16t-59.5 -16q-33 -14 -81 -48t-93 -77t-77 -90.5t-32 -88.5v-4q8 0 8 -8h7q2 0 16 18.5t37.5 40t56.5 40t70 18.5q90 0 164.5 -50t130.5 -116q10 -10 16 -30.5t27 -20.5l3 1t5 1q6 4 21.5 17.5t32 27.5t31.5 27.5t21 17.5l9 8q18 16 60 56t87 82t78 73 l33 31v8q-2 2 -4.5 5t-4.5 3h-8q-14 -12 -31.5 -28.5t-34 -29.5t-30.5 -23.5t-25 -10.5h-12q-51 43 -99 87t-116 63q-29 8 -56.5 13t-27.5 28q0 14 31 34.5t70.5 42t79.5 41t61 31.5q41 37 64.5 84t34.5 101.5t14.5 116t3.5 124.5q0 70 -13.5 138.5t-13.5 135.5q0 27 6 54.5 t18.5 50t33 37t48.5 14.5q33 0 53.5 -29.5t34 -73.5t19.5 -95.5t8 -95.5t2 -73q0 -27 0 -24v-191q0 -10 2 -45.5t3 -77.5t3 -79t2 -45v-185v-108t-1 -96.5t-3 -97.5t-6 -111q-8 -23 -8 -50q0 -10 1 -18t1 -18q0 -145 -69.5 -252t-213.5 -135h-198q-8 0 -30 4t-45.5 9 t-41.5 11t-18 12q0 2 1 3l1 1q37 4 72.5 14.5t63 30t45 49t17.5 74.5q0 41 -21.5 73t-55 52.5t-72.5 30.5t-74 10q-37 0 -74 -11t-67.5 -33.5t-49 -54.5t-18.5 -73z" />
<glyph unicode="Z" horiz-adv-x="1474" d="M178 -6q16 -55 25.5 -113.5t32.5 -111.5q35 -80 95 -130.5t134 -78t155.5 -37.5t159.5 -10q117 0 238 27.5t217 94t157.5 177t61.5 276.5q0 100 -27.5 177t-80.5 159q0 4 -14.5 19.5t-35 33t-41 35.5t-32.5 29q-12 8 -50 26.5t-80 37t-76 32.5t-36 18q10 16 49 21.5 t68 13.5q61 12 112.5 49t89 87.5t59 110.5t21.5 120q0 123 -57 214t-147.5 151.5t-201 90t-216.5 29.5q-96 0 -193.5 -25.5t-176.5 -80t-128 -135t-49 -191.5q0 -8 5 -16.5t15 -8.5q6 0 11.5 18.5t11.5 44.5t11 53.5t11 43.5q20 51 56.5 91t82.5 68t97 42t104 14 q96 0 163 -31.5t109 -87t60.5 -130t18.5 -160.5q0 -205 -68 -292t-203 -87q-18 0 -52 3t-65.5 12t-55 27.5t-23.5 47.5q0 23 22.5 33t49 24.5t49 42t22.5 88.5q0 57 -36 97t-93 40q-80 0 -138.5 -52t-58.5 -134q0 -57 34 -103t75 -79t75 -52.5t34 -23.5v-4q-2 0 -4.5 -3 t-4.5 -5t-12 -6t-21.5 -10.5t-21.5 -10.5t-12 -6q-74 -41 -121 -123t-47 -168h20q18 66 50 123t78 100t104.5 69t132.5 26q27 0 65.5 -1t65.5 -10q63 -18 103 -66t63.5 -108.5t33 -126t9.5 -120.5l-43 -490q-4 -37 -21.5 -65.5t-45 -49t-60.5 -32t-66 -11.5q-88 0 -132 32 t-63.5 82t-24.5 111.5t-15 124t-37 117t-90 88.5q-29 16 -60.5 29.5t-66.5 13.5q-92 0 -146.5 -24.5t-84 -70.5t-38 -111.5t-8.5 -149.5h23v80q0 41 8 77t26.5 59.5t53.5 23.5q16 0 29.5 -9.5t23.5 -23.5z" />
<glyph unicode="a" horiz-adv-x="968" d="M543 1102q-12 -8 -31.5 -21.5t-42.5 -29t-45.5 -28.5t-38.5 -22q-55 -27 -118.5 -50t-119 -57t-91.5 -82t-36 -124v-416q0 -39 16.5 -80.5t44.5 -79.5t61.5 -68t68.5 -44h8q2 0 22.5 18.5t49 43t57.5 49t45 39.5q20 16 44 40.5t52 24.5q8 0 27 -32.5t45.5 -71.5t60 -72 t70.5 -33q2 0 11.5 1t13.5 1q23 27 62.5 58.5t78.5 64.5t67.5 61.5t28.5 49.5q-23 0 -39 -9.5t-38 -9.5q-12 0 -24.5 10.5t-23 24.5t-16.5 29.5t-6 25.5v11q0 25 2 90t3 137t2 137.5t1 89.5q8 25 25.5 39t36 23.5t33 15.5t14.5 12q0 14 -9 19q-102 39 -179 89t-161 126h-32z M348 920h4q20 -16 46 -34t48.5 -38.5t39 -44t16.5 -49.5v-389q0 -23 -7.5 -47.5t-21.5 -46t-34.5 -35t-47.5 -13.5q-20 0 -37.5 22.5t-17.5 45.5v620l8 9h4z" />
<glyph unicode="b" horiz-adv-x="944" d="M18 260q0 -20 30 -29.5t63 -31.5q23 -12 65.5 -45t87.5 -67t81 -60.5t44 -26.5h12q45 41 95.5 68.5t102.5 49t106.5 41t109.5 48.5q45 33 66.5 80t31 99t9.5 106q0 55 2 104v57q0 53 -1 102.5t-10.5 96.5t-28 91t-53.5 85q-8 8 -17 22.5t-20.5 29t-24.5 23.5t-30 9 q-6 0 -36.5 -20.5t-73.5 -50t-91.5 -63.5t-86.5 -58h-9l-16 16v192q0 72 5 134.5t29.5 108.5t75 74t140.5 30l8 12l-8 12q-10 0 -42 1t-42 1q-43 0 -91 -2t-94.5 -11t-90.5 -25.5t-80 -45.5q-27 -27 -56.5 -53.5t-42.5 -38.5h-8q-10 6 -22.5 28.5t-24.5 45t-24.5 41 t-24.5 18.5h-4q-8 0 -9 -8v-4q0 -12 9.5 -29.5t20.5 -35t21.5 -35t14.5 -29.5q8 -29 16.5 -75t8.5 -75v-802q0 -23 -14.5 -39.5t-32 -27.5t-32 -20.5t-14.5 -17.5zM535 897q10 0 25 -1t15 -9l17 -33v-522l-8 -84q0 -6 -6.5 -7t-10.5 -1h-8q-18 16 -40.5 34.5t-43 37 t-35 34.5t-14.5 27v473q0 12 13.5 22.5t31.5 16.5t36 9t28 3z" />
<glyph unicode="c" horiz-adv-x="786" d="M20 287q12 -49 43 -89t71 -73t85 -59.5t82 -51.5q10 -6 14 -7t11 -1h10q12 0 35.5 15.5t54.5 37t65.5 46t67.5 42.5q8 4 42 21.5t71 38t65.5 41t28.5 31.5q0 18 -16 18q-39 0 -77 -17.5t-79 -17.5q-66 0 -115 24.5t-81.5 66.5t-48 97.5t-15.5 116.5q0 14 1 51t2 84.5 t3 96.5t5 90t7 67.5t8 26.5h9q8 0 26.5 -48t40 -105.5t44 -105.5t38.5 -48q6 0 8 2l232 106q6 4 7 12.5t1 12.5v8q-35 76 -69.5 153t-63.5 154h-25l-413 -125q-61 -18 -96.5 -54t-52.5 -83t-21.5 -101t-4.5 -110v-182v-182z" />
<glyph unicode="d" horiz-adv-x="935" d="M20 219v-6q0 -12 9 -14q55 -23 101 -38.5t88 -36t83 -49t84 -75.5h25q35 41 78.5 77t95.5 56q55 20 109.5 32.5t98.5 34t74.5 60.5t40.5 113q6 55 7 115.5t1 117.5q0 121 -12 208t-39.5 150.5t-71.5 108.5t-106.5 83t-145.5 74t-188 79q-29 12 -60.5 34.5t-31.5 57.5 q0 27 16.5 41t39 21t49 9.5t47.5 2.5h22q2 2 5 4t3 4l2 4q0 4 -7 12t-11 8h-131q-41 0 -80 -26.5t-69.5 -65.5t-49 -83t-18.5 -81q0 -59 26.5 -105t69.5 -80t94 -57.5t101 -39.5q18 -10 18 -25q0 -18 -15.5 -29.5t-36 -17.5t-41 -8t-32.5 -2q-35 0 -66.5 4t-64.5 4h-8 q-8 0 -16.5 -1t-8.5 -7v-580q0 -12 -9 -23.5t-22.5 -21.5t-26.5 -18t-20 -13v-12zM442 946q68 0 100.5 -42t45 -106.5t12.5 -142.5v-149v-174q-4 -12 -4 -27q0 -6 1 -11t1 -11q0 -16 -4 -29.5t-19 -13.5h-8q-16 12 -39.5 26.5t-46 28.5t-39 27.5t-16.5 25.5v588q0 8 6 9 t10 1z" />
<glyph unicode="e" horiz-adv-x="802" d="M20 571v-28q0 -82 3.5 -144.5t21.5 -115t57 -100.5t109 -101q12 -8 29.5 -20.5t36 -24.5t37 -20.5t34.5 -8.5h12q68 41 130.5 92.5t134.5 89.5q45 25 85 42.5t72 56.5v4q0 10 -7 12t-13 2q-18 0 -39 -7t-44.5 -14t-49 -14.5t-51.5 -7.5q-33 0 -77 17.5t-83 47t-65.5 66.5 t-26.5 74q0 18 33.5 44t85 54.5t109.5 56t109.5 53t85 45t33.5 32.5q0 6 -14 36.5t-35.5 73.5t-48.5 91.5t-50.5 88t-41 66.5t-23.5 27q-12 0 -16 -1t-7 -3.5t-8.5 -5.5t-19.5 -9q-10 -4 -51 -18.5t-87 -31.5t-86 -31.5t-50 -18.5q-84 -31 -129 -74t-65.5 -98t-25 -124 t-4.5 -151zM311 563q-2 6 -2 31v31q0 27 1 81t5 109t10.5 98t18.5 48q20 -16 46 -58.5t48.5 -89.5t39 -90t16.5 -61q0 -14 -20.5 -33t-48.5 -36.5t-54.5 -28.5t-38.5 -11q-6 0 -12.5 1t-8.5 9z" />
<glyph unicode="f" horiz-adv-x="679" d="M195 152l92 -566q0 -6 6 -7t10 -1q18 0 24.5 23.5t8.5 33.5l65 433q35 92 50.5 185t21.5 185t10 182.5t19 178.5q8 31 29.5 38t50.5 7q16 0 32.5 -2t28.5 -2l16 16v117q0 10 -34.5 17t-88 17.5t-114 26t-113.5 42t-88 67.5t-35 102q0 18 11.5 34.5t33.5 16.5 q23 0 41.5 -17t42 -37.5t55 -38t79.5 -17.5q57 0 91.5 25.5t54 65.5t26 88t6.5 93v29q-2 12 -5 35l-4 22h-24q-2 -16 -3 -36.5t-4 -38t-8.5 -30t-15.5 -12.5q-25 0 -46 18.5t-41.5 40t-42 40t-48.5 18.5h-106q-4 0 -17.5 -6t-17.5 -10q-35 -29 -56.5 -66t-33 -76.5 t-15.5 -84t-4 -87.5q0 -37 1 -71.5t1 -69.5v-26q-2 -47 -20.5 -77t-40 -50.5t-39 -34t-17.5 -25.5v-6q0 -6 1.5 -12t7.5 -6h92q8 -2 10 -20.5t6 -35.5l41 -422q0 -8 -1 -14t-1 -14q0 -45 7.5 -91t11.5 -87z" />
<glyph unicode="g" horiz-adv-x="968" d="M53 -307q72 -90 175.5 -120t213.5 -30q82 0 170 23.5t161 72t120 119t47 164.5q0 55 -18.5 96t-40 80t-40 80t-18.5 94v9q0 27 3 92t5.5 139t5.5 139.5t3 91.5q10 49 30.5 73t77.5 28v8q0 6 -34.5 27.5t-81 48t-93.5 53.5t-73 45q-14 10 -31 28.5t-34 36t-34.5 31 t-34.5 13.5q-12 0 -29.5 -12.5t-35.5 -30t-35.5 -34t-30.5 -24.5q-4 -2 -20 -11t-36.5 -19.5t-39 -20.5t-29.5 -14q-35 -18 -74.5 -28.5t-74.5 -27t-59.5 -47t-30.5 -88.5q0 -18 -1 -56t-3 -87t-4 -101.5t-4 -101.5t-3.5 -87t-1.5 -56v-4q0 -72 24 -124t77 -95 q12 -10 32.5 -35t41.5 -25q25 0 64.5 32t83.5 68.5t86 68.5t71 32q14 0 18 -10q6 -61 21.5 -107.5t44.5 -99.5q12 -23 28.5 -44.5t29.5 -44t23.5 -47t10.5 -53.5q0 -49 -26.5 -88t-67.5 -65.5t-89.5 -41t-91.5 -14.5h-24q-29 0 -60.5 5.5t-48.5 27.5q12 23 33 30t39 16.5 t31.5 27.5t13.5 63q0 80 -51 113t-123 33t-123 -38t-51 -116q0 -10 7 -30.5t9 -30.5zM344 285v4q0 14 1 65.5t3 119t4 141t4 136t5.5 103.5t7.5 41q6 0 29.5 -14.5t50 -34t49 -36.5t28.5 -24v-182q0 -18 -2 -61t-3 -92.5t-2 -93.5t-1 -60q-4 -12 -19.5 -26.5t-34 -28 t-37.5 -21.5t-30 -8q-29 0 -41 23.5t-12 48.5z" />
<glyph unicode="h" horiz-adv-x="952" d="M301 -426q0 -10 7 -11t14 -1q18 0 39.5 8t42 20.5t39 24.5t32.5 20q121 72 207 142.5t141.5 163t82 217.5t26.5 307v356q-4 74 -31 134.5t-78 113.5q-6 6 -15 16.5t-18.5 19.5t-16.5 16l-7 7h-16l-248 -192q-4 -2 -16.5 -7t-18.5 -9h-4q-10 0 -14.5 14t-6.5 20v197 q0 68 6.5 125t31 101t72.5 72t132 34v8q-2 4 -5 9t-3 9h-64q-68 0 -138.5 -10t-135 -37.5t-117.5 -75t-88 -118.5h-4q-10 4 -22.5 30.5t-26.5 57t-29.5 55.5t-30.5 25v-27q57 -100 83 -216t26 -230v-615q0 -41 -17.5 -62.5t-37 -33.5t-37 -20.5t-17.5 -20.5q0 -6 14.5 -15.5 t33 -19.5t38 -19.5t31.5 -15.5q10 -6 30.5 -28.5t42 -45t41 -41t30.5 -18.5q8 0 34.5 19.5t60.5 47t70.5 57.5t63.5 50q18 16 26.5 20.5t8.5 30.5h-78q-12 0 -22.5 19.5t-10.5 32.5v14q0 31 2 108.5t3 164.5t2 165t1 109q16 20 40 38.5t53 18.5h8q23 -12 41 -34.5t18 -51.5 q0 -4 -1 -6t-1 -6v-430q0 -66 -1 -131.5t-7 -134.5q-6 -10 -7 -20.5t-1 -20.5v-41q-8 -117 -50 -215.5t-141 -167.5q-8 -6 -23.5 -12.5t-30.5 -14.5t-26.5 -18.5t-11.5 -24.5z" />
<glyph unicode="i" horiz-adv-x="612" d="M119 268q0 -12 3 -31.5t8 -41t13.5 -41t18.5 -29.5l106 -109q8 -6 15.5 -7t15.5 -1q12 0 47 25.5t78 60.5t86 74t74 63l8 9q0 4 1 14t1 14q-23 0 -42.5 -10t-43.5 -10q-29 0 -42 21.5t-18.5 50t-5.5 57.5v45v373q8 33 27.5 50t40 26.5t35 15.5t14.5 16q0 4 -19.5 19.5 t-44 32t-47 29.5t-30.5 17l-119 109q-12 0 -31.5 -12.5t-40 -29.5t-38 -33.5t-27.5 -24.5q-20 -16 -55 -45t-58.5 -48.5t-28.5 -21.5v-35q16 0 31 9.5t31 9.5q33 0 41 -25t14 -51v-90q0 -90 -4 -178.5t-4 -176.5v-59q-8 -8 -9 -14.5t-1 -16.5zM160 1348q0 -14 3 -43 t10 -57.5t19.5 -50t30.5 -21.5h13q92 20 154.5 60t62.5 118q0 61 -40 99t-102 38q-70 0 -110.5 -36.5t-40.5 -106.5z" />
<glyph unicode="j" horiz-adv-x="612" d="M154 -248q-8 -33 -31 -58.5t-46.5 -48t-42 -41t-18.5 -36.5q111 0 207 47t170 129q2 2 7.5 11t12.5 19.5t14 18.5t11 8h4q2 0 14.5 -34.5t27 -76.5t28.5 -77t23 -35h4q12 0 12 16v25q-29 70 -50.5 142.5t-25.5 148.5v373q0 27 2 96.5t3 147t2 146t1 97.5q6 45 24.5 66.5 t37 31t33 14.5t14.5 17v12l-82 41q-18 8 -48 36t-60.5 56.5t-55 51t-33.5 22.5q-2 0 -24.5 -16.5t-55 -42t-70.5 -55t-71 -57t-54.5 -49t-21.5 -30.5q25 0 47.5 9.5t47.5 9.5h10q29 -27 41 -44.5t16 -56.5v-337q0 -27 -1 -81.5t-4 -123t-6 -144t-5 -144.5t-4 -123t-4 -81z M203 1368q0 -96 57 -176h29q39 0 76.5 14.5t68.5 39t49.5 58t18.5 74.5q0 59 -45 98.5t-105 39.5q-70 0 -109.5 -41t-39.5 -107z" />
<glyph unicode="k" horiz-adv-x="720" d="M20 240q0 -6 19.5 -21.5t47.5 -36t59.5 -42t56.5 -40.5q10 -10 22.5 -26.5t25.5 -33.5t27.5 -29.5t28.5 -12.5q2 0 6 1t6 1q80 66 153 137.5t155 136.5q14 0 23 15.5t9 25.5q0 16 -12 17q-16 0 -31.5 -12.5t-33 -25.5t-36 -25.5t-42.5 -12.5q-37 0 -61.5 27.5t-24.5 64.5 v457q0 10 8 29.5t27 19.5h223l8 8l3 26q3 25 5 40v30q0 16 -3 31t-13 15h-207q-4 0 -21.5 3t-21.5 13v29q0 33 9 72.5t22.5 74.5t32 57.5t36.5 22.5h11q0 -18 1 -46t9 -52.5t23.5 -42t45.5 -17.5q31 0 47.5 15.5t24.5 37t10 45t2 39.5q0 41 -28.5 73t-73.5 32 q-29 0 -49.5 -12.5t-37.5 -31t-33.5 -39t-35.5 -34.5l-8 8q0 4 -1 20.5t-1 22.5q0 51 15.5 84t42 51.5t63.5 24.5t78 6h31q14 0 30 -2q8 2 8 15v14q0 12 -8 14h-80q-78 0 -140 -8t-116.5 -28.5t-104.5 -56.5t-106 -91q-12 0 -16 10l-59 115h-21q0 -23 8.5 -43.5t18.5 -40 t20 -40t17 -42.5q6 -29 7 -67t1 -68q0 -72 -23.5 -137.5t-77.5 -116.5v-29h101v-543q0 -23 -15.5 -32t-35 -13t-35 -10t-15.5 -20z" />
<glyph unicode="l" horiz-adv-x="655" d="M20 215q43 -25 76 -49.5t63.5 -50t61.5 -56t66 -67.5h8q2 0 8 3t8 5q27 25 80 61.5t105.5 74.5t92.5 70t40 44v10q-31 0 -55.5 -14.5t-57.5 -14.5q-31 0 -47 22.5t-16 53.5v922q10 23 11 57.5t5 50.5q6 39 18.5 61.5t32 36t48 20.5t67.5 13v29q-111 0 -207 -21.5 t-184 -89.5q-8 -6 -21.5 -21t-28 -30.5t-26.5 -28t-18 -12.5q-14 0 -24.5 26t-22 55.5t-27 55t-39.5 25.5v-20q25 -45 38 -83t21 -73t13.5 -69.5t11.5 -73.5v-764q0 -43 -9.5 -81t-25.5 -38h-66v-39z" />
<glyph unicode="m" horiz-adv-x="1542" d="M733 25q4 -10 11.5 -25.5t23.5 -15.5q12 0 22.5 10t21.5 23.5t20.5 27.5t17.5 21q12 12 37.5 26t50.5 27.5t43 26t18 18.5v12q0 12 -10 20.5t-23.5 16.5t-23.5 19.5t-10 27.5v6q4 49 6 93t3 88.5t1 89.5v98q0 47 -1 88t-1 57q0 20 11.5 37t27.5 29t35.5 19t38.5 7 q29 0 41 -19t15 -48t1 -61.5t-2 -59.5q0 -111 -5 -218.5t-5 -217.5q0 -86 50 -153.5t116 -112.5l40 30q39 31 86.5 70t88.5 73.5t43 43.5q2 4 2 12v8h-76q-10 0 -16.5 10.5t-10.5 22.5t-6 23.5t-2 15.5v514q0 23 13.5 34t28.5 17t28.5 13.5t13.5 23.5q-14 -2 -51 29.5 t-78 69.5t-73.5 71t-37.5 33q-18 0 -18 -2t-16 -15q-59 -55 -113.5 -98t-126.5 -94q-2 0 -8 -3t-8 -5h-6q-6 0 -21.5 34.5t-39 77.5t-53.5 78t-63 35h-10q-6 -4 -19.5 -15.5t-29.5 -22.5t-29.5 -22.5t-19.5 -15.5t-34 -25.5t-59.5 -45t-61 -43t-40.5 -19.5q-10 0 -17 15.5 t-13.5 36t-12.5 40t-12 25.5l-29.5 29.5t-37 33t-40 26.5t-38.5 11h-13l-248 -240q0 -18 17 -18q16 0 22.5 9t26.5 9t33.5 -11t20.5 -27.5t10.5 -36t3.5 -35.5v-49q0 -25 -2 -84.5t-3.5 -127t-2.5 -127t-1 -83.5q-10 -35 -33.5 -61.5t-50.5 -47.5v-4q0 -6 12.5 -14t29 -17.5 t33 -17.5t26.5 -12q12 -8 31.5 -28.5t38 -42t33 -38t18.5 -16.5l12 8q14 20 25.5 36.5t23.5 31t27.5 28t38.5 29.5q8 6 24.5 11t33.5 12.5t29.5 16.5t12.5 23q0 23 -17.5 35.5t-23.5 34.5v25q0 18 -1 38.5t-1 38.5v25q0 82 3 203t7 233q8 25 39 50.5t55 25.5 q25 0 37.5 -14.5t18.5 -35t7 -43t1 -36.5q0 -106 -4 -211.5t-4 -212.5v-70l-11 -11q-10 -11 -22 -25.5t-23.5 -28.5t-11.5 -16q0 -16 8 -25.5t20.5 -16t25 -12.5t22.5 -14l19.5 -19.5t29.5 -30t29.5 -30.5t19.5 -20z" />
<glyph unicode="n" horiz-adv-x="1101" d="M70 195q0 -16 16 -23.5t27 -13.5q14 -10 43.5 -38t59.5 -58.5t52 -53.5l21 -24l14 8q31 31 55.5 59.5t49 51t52 41t66.5 30.5q2 2 4 8t5 8v5q0 10 -10.5 15t-23 9t-22.5 10.5t-10 18.5v565q0 16 11.5 31.5t27.5 27t34.5 18.5t32.5 7q12 0 30 -3t20 -24l8 -92v-61 q0 -39 -1 -90.5t-2 -108.5t-2 -108.5t-2 -92.5t-1 -59v-41q0 -33 12 -65.5t31.5 -62.5t43 -57.5t46.5 -47.5h8q45 18 80 51t69 65q14 6 43 23.5t56.5 39t48 45t20.5 44.5q-23 0 -40 -10.5t-39 -10.5q-10 0 -32 5.5t-24 21.5l-8 66l8 454q2 39 34 57.5t67 18.5v20q0 6 -9 13 q-66 49 -127 98t-114 117l-3 1t-5 1q-10 0 -34 -15.5t-50.5 -36t-52 -39t-38.5 -26.5q-6 -4 -22 -16.5t-34.5 -25.5t-35 -25.5t-22.5 -16.5h-8q-14 0 -21.5 10.5t-11.5 23.5t-7 27.5t-12 22.5l-49 49q-8 6 -23.5 17.5t-33 22.5t-31.5 19.5t-20 8.5q-16 0 -43 -18.5 t-54.5 -43t-53 -48t-40.5 -33.5q-35 -25 -55.5 -41.5t-20.5 -42.5q20 0 37 9t35 9q41 0 56.5 -27.5t15.5 -62.5v-473q0 -43 -14.5 -63.5t-32 -32t-31.5 -18.5t-14 -23z" />
<glyph unicode="o" horiz-adv-x="919" d="M20 233q117 -49 211.5 -102t186.5 -137h8q12 0 22.5 11t21.5 26.5t20.5 31t19.5 23.5q25 20 51.5 32.5t54 20.5t57 14.5t60.5 14.5q55 14 89 46t51.5 75t22.5 93t5 101q0 35 -1 69t-1 64v172q-12 98 -51 163t-115 128q-12 10 -20 18.5t-27 8.5q-12 0 -35.5 -13.5 t-50.5 -31t-51.5 -33.5t-38.5 -22q-96 -41 -196.5 -52.5t-200.5 -15.5l-11 -16v-572q0 -35 -13 -50t-28.5 -21.5t-29 -11.5t-13.5 -21l1 -6q1 -5 1 -7zM410 913l16 17q61 -12 94 -50t49.5 -87.5t19.5 -104.5t3 -102q0 -29 1 -85.5t-2 -111.5t-10.5 -97t-21.5 -42 q-12 0 -36.5 15.5t-50.5 37t-44 44t-18 36.5v530z" />
<glyph unicode="p" horiz-adv-x="1044" d="M117 231q51 0 74.5 -23.5t32.5 -59t11.5 -77.5t8.5 -79q2 -12 7 -50t11 -86.5t16.5 -102.5t22.5 -98t28.5 -74t35.5 -30q20 0 39.5 39t35 98.5t28.5 128t23.5 128t17.5 98.5t11 39h6q8 0 21.5 -13.5t28 -28.5t28.5 -28.5t27 -13.5l12 10q12 25 21.5 42.5t19.5 32.5 t23.5 31.5t33.5 35.5q16 14 61.5 30.5t92.5 36t84 44t37 54.5q0 6 2 20.5t3 32t2 33t1 21.5v448q-6 31 -20.5 74t-33 84t-35.5 69.5t-28 28.5h-33q-70 -55 -148.5 -116.5t-166.5 -89.5h-4q-6 0 -14.5 25.5t-18.5 58t-23.5 64.5t-29.5 42q-6 4 -41 15.5t-74 26.5t-70.5 34.5 t-31.5 40.5q0 37 25.5 46t56.5 13t56.5 12.5t25.5 38.5q-66 0 -125.5 -18.5t-105.5 -54t-72.5 -90t-26.5 -125.5q0 -47 19.5 -75t43 -47.5t45 -37t25.5 -43.5v-150q0 -12 -1 -40.5t-2 -62.5t-3 -62.5t-2 -41.5q-4 -6 -34 -24.5t-64.5 -49t-63.5 -70.5t-29 -89v-125l13 -8 l12 8q2 47 12.5 73.5t59.5 26.5zM543 422q0 20 -1 74.5t-3 116t-3 114.5t-1 76v10q0 43 30.5 63.5t69.5 20.5q31 0 45 -35t19.5 -83t3 -98t-2.5 -83v-274q-4 -16 -16 -27q-18 12 -39.5 26.5t-42 31t-37 34t-22.5 33.5z" />
<glyph unicode="q" horiz-adv-x="968" d="M518 217q6 -72 15.5 -136.5t21.5 -125.5t27.5 -122.5t33.5 -129.5q14 -47 20.5 -78t29.5 -71h14q12 0 23.5 17t20.5 40.5t16.5 47.5t9.5 36l81 389l17 745q0 20 16.5 28.5t35 12.5t33.5 11.5t15 25.5v4q-2 2 -4 5.5t-4 3.5q-111 37 -217.5 92t-187.5 141h-17 q-41 -45 -84 -77t-89 -57.5t-95 -47t-105 -43.5q-16 -6 -26 -11.5t-18.5 -12.5t-16.5 -17t-23 -25q-14 -16 -22 -60t-12 -94.5t-5.5 -97.5t-1.5 -69v-19q2 -96 3.5 -157.5t5.5 -104.5t15 -72.5t34 -62.5q2 -2 5 -8t3 -8l109 -101q10 -8 24 -8h8q27 25 61 56.5t69.5 63.5 t72.5 59.5t72 45.5h8q0 -8 8 -8zM352 340v27q0 20 -1 41.5t-1 40.5v28q0 94 5 186.5t5 186.5v53q0 8 9 8h4q8 0 27.5 -10t41 -23.5t40 -27.5t28.5 -21l8 -8v-481q0 -35 -20.5 -63.5t-57.5 -28.5q-39 0 -61.5 28.5t-26.5 63.5z" />
<glyph unicode="r" horiz-adv-x="952" d="M303 117l123 -109q16 0 25 8l217 183q6 2 31.5 20.5t53 40t50 43t22.5 33.5q0 20 -16 20q-18 0 -34.5 -13t-36 -28.5t-46 -29t-63.5 -13.5q-29 0 -51.5 13.5t-40 35t-26.5 48t-9 53.5v416l57 49q23 0 46.5 -39t45 -86t43 -86t39.5 -39h8l191 201l1 8t1 12t-19.5 48 t-47 95.5t-58.5 93.5t-51 42q-4 0 -25.5 -20.5t-50.5 -49.5l-58.5 -58.5t-48.5 -47.5q-4 -4 -23.5 -20.5t-25.5 -20.5h-8q-6 0 -22.5 34.5t-43 76.5t-63.5 77t-82 35h-4q-35 -29 -84 -71t-93 -81t-75 -68.5t-31 -35.5v-29q27 0 46.5 14.5t44.5 14.5t46 -19.5t21 -48.5v-463 q0 -23 -12 -38t-29.5 -26t-38 -17.5t-37.5 -10.5v-12q0 -10 20.5 -22.5t48.5 -23.5t55.5 -21.5t41.5 -18.5q18 -12 35.5 -26.5t40.5 -22.5z" />
<glyph unicode="s" horiz-adv-x="935" d="M70 182q111 -27 221 -68.5t203 -113.5l3 -1t5 -1q4 0 14 10t22.5 25.5t24.5 31t21 27.5q31 33 87 77t110.5 94t94 103.5t39.5 106.5v148q0 37 -28.5 64.5t-62 48t-62.5 36.5t-29 29v12q66 59 103.5 133t37.5 162q0 82 -33.5 145.5t-90 107.5t-128 67.5t-147.5 23.5 q-53 0 -110.5 -21.5t-104.5 -58.5t-76.5 -87t-29.5 -107q0 -16 16 -17q6 0 13 15.5t15.5 35t15.5 39t13 27.5q59 70 125 97.5t154 27.5q47 0 99 -14.5t95 -43t72 -70.5t29 -97t-44 -94.5t-98 -39.5q-39 0 -77.5 11.5t-71.5 31.5q-6 4 -16.5 13.5t-21.5 19.5t-20.5 18.5 t-15.5 8.5q-8 0 -28.5 -21.5t-46 -52.5t-53 -61.5t-48.5 -48.5q-45 -41 -88 -75t-77 -73t-54.5 -87t-20.5 -114q0 -55 29 -97t62.5 -71.5t62.5 -48t29 -26.5v-4q-2 -4 -4 -9.5t-4 -7.5l-117 -133q-8 -10 -8 -25v-8zM311 406q-6 4 -13 12t-5 8q0 25 22.5 50.5t55 47 t70.5 35.5t69 14q45 0 79 -25.5t56.5 -64.5t34.5 -83t12 -83q0 -10 -1 -25.5t-5 -30.5t-11 -26.5t-20 -11.5h-6q-59 72 -154.5 118.5t-183.5 64.5zM252 838v6q0 18 5 43.5t30 25.5q6 0 30.5 -16t54 -36.5t59.5 -40t46 -25.5q29 -10 60.5 -14.5t64.5 -4.5q16 0 32.5 1t33.5 1 l8 -12q0 -16 -22.5 -36.5t-28.5 -24.5q-47 -41 -85 -67t-102 -26q-41 0 -74.5 21.5t-58 54.5t-39 73t-14.5 77z" />
<glyph unicode="t" horiz-adv-x="704" d="M29 231q0 -6 17 -15t40 -18.5t47.5 -19.5t36.5 -20q12 -8 35.5 -33t48.5 -50.5t46.5 -46t31.5 -20.5h4q45 39 84 73t78 64.5t77.5 61.5t83.5 67q2 2 4.5 11.5t4.5 13.5v8l-13 8q-14 0 -26.5 -8t-24.5 -17t-25.5 -17.5t-29.5 -8.5q-37 0 -55.5 16.5t-25.5 44t-8 63.5 t-1 77q0 86 3 183t7 198q4 4 12 10t13 6h182q4 35 6 57.5t2 53.5v22q0 4 -3 8.5t-5 4.5h-191l-16 20v442q-16 0 -34.5 -32.5t-37 -75.5t-35 -85t-26.5 -58q-35 -59 -63.5 -106.5t-58.5 -84.5t-64.5 -63.5t-79.5 -44.5q-35 -14 -43.5 -20.5t-8.5 -35.5v-10h136l16 -16v-66 q0 -12 -3 -61t-6 -104.5t-5 -104.5t-2 -62v-100q-4 -37 -24.5 -54.5t-43.5 -25.5t-40 -12.5t-17 -16.5z" />
<glyph unicode="u" d="M53 227q0 -8 12.5 -17t28 -16.5t28.5 -12.5t15 -7q14 -8 46 -34.5t62.5 -56.5t54.5 -53l24 -22q6 0 30.5 19.5t53 45t57.5 50t45 35.5l74 49q10 8 17 16t20 8q2 0 21.5 -33.5t49 -73.5t67.5 -74t77 -34q6 0 31.5 19.5t61.5 48.5t77 61.5t75 61.5q16 14 20.5 17t4.5 20 q0 23 -16 22q-16 0 -32 -13t-38 -13q-31 0 -46.5 32.5t-21.5 78.5t-5 94.5t1 76.5q0 70 4 137.5t4 139.5v47q8 29 24.5 42t33 20t30 12.5t13.5 15.5t-8 16q-68 41 -118 86t-108 105h-16q-49 -51 -109.5 -102.5t-130.5 -79.5v-13q0 -12 9.5 -21t20.5 -19.5t21.5 -22 t14.5 -23.5v-28q0 -18 1 -40t1 -42v-27q0 -90 -5 -176t-5 -174v-51q0 -35 -32 -55.5t-61 -20.5q-45 0 -57 43v143q0 100 5 199.5t5 200.5q0 76 -13 137t-71 114q-23 20 -41 36t-47 16q-2 0 -16 -11.5t-34.5 -28t-43 -36t-41.5 -33.5q-10 -10 -35.5 -29.5t-53.5 -40 t-48.5 -38t-20.5 -21.5q0 -10 7.5 -11t13.5 -1q14 0 24.5 4t24.5 4q35 0 50.5 -32t20.5 -75t3 -87t-2 -68q0 -72 -2 -142.5t-6 -142.5q-2 -45 -18.5 -65.5t-35 -29.5t-33 -13.5t-14.5 -12.5z" />
<glyph unicode="v" horiz-adv-x="944" d="M37 262q0 -12 17.5 -24.5t41 -23.5t45 -19.5t29.5 -12.5q18 -10 55 -39.5t75 -61.5t68.5 -56.5t37.5 -24.5h4q59 63 119.5 105t138.5 77q66 31 113.5 39t79.5 36t47.5 98.5t15.5 224.5v213q0 61 -3 104t-18.5 79t-45.5 70.5t-83 79.5q-2 0 -6 1t-6 1q-18 0 -35.5 -10 t-35 -24.5t-36 -30.5t-39.5 -27q-8 -6 -28.5 -20.5t-44 -30.5t-46 -29.5t-30.5 -19.5h-8q-10 0 -16.5 16.5t-12.5 39t-12 44t-17 33.5q-18 23 -54 40t-69.5 33.5t-59 33t-25.5 38.5q0 25 14 38.5t38.5 20.5t56.5 9t65 2h10q0 2 1 6t1 6q0 20 -27 21q-61 0 -120.5 -15.5 t-106.5 -47t-76 -81t-29 -116.5q0 -27 7.5 -60.5t25.5 -52.5l92 -90v-266l-8 -17v-223q0 -23 -15.5 -33t-34.5 -16t-34.5 -13.5t-15.5 -23.5zM426 481q0 96 4 193.5t12 195.5q43 49 107 50q23 0 37 -15.5t21 -40t10.5 -54.5t3.5 -56q0 -23 -1.5 -43.5t-1.5 -32.5v-23 q0 -23 -2 -42t-12 -42v-335q-12 0 -29.5 11t-38 27.5t-43 36t-42.5 37.5q-16 14 -20.5 38t-4.5 48v47z" />
<glyph unicode="w" horiz-adv-x="1441" d="M543 236v-5q6 -12 22.5 -22t34.5 -18.5t34.5 -14.5t24.5 -10q16 -8 54.5 -35t76 -56.5t69.5 -52t36 -22.5q10 0 39 31.5t57 60.5q25 23 59.5 41.5t63.5 32.5q61 27 117.5 40t99.5 43t68.5 94.5t25.5 195.5q0 53 -2 103t-2 87v166q-16 78 -61 129t-105 102q-2 2 -8 5.5 t-8 3.5l-4 2q-2 0 -13.5 -8.5t-26.5 -19.5t-32.5 -24.5t-32.5 -23.5q-10 -10 -34.5 -31.5t-52 -44t-54 -40t-45.5 -17.5h-4q-8 2 -23.5 35.5t-37 73.5t-52 74t-69.5 34q-12 0 -46 -23.5t-74 -55.5t-82 -63.5t-71 -50.5q-16 10 -23 21.5t-10 23t-6.5 21.5t-11.5 18 q-16 25 -49 51.5t-57 47.5q-16 12 -39 15t-44.5 6t-36.5 13.5t-15 40.5q0 27 16 41.5t39.5 21.5t50.5 9t47 2h14q0 2 1 6t1 6q0 16 -11 19.5t-25 3.5h-21q-55 0 -106.5 -18.5t-91 -51t-63.5 -80t-24 -104.5q0 -59 18.5 -98t63.5 -80q16 -14 25.5 -18.5t17.5 -22.5v-275 q0 -14 -1 -51t-3 -77t-3 -76.5t-1 -51.5q-2 -20 -13 -30.5t-27.5 -16.5t-35 -8t-32.5 -4v-12q0 -14 14 -25.5t34.5 -21t39 -16.5t28.5 -15q35 -29 66 -64.5t49 -76.5h16q8 8 27 26.5t40.5 40t39.5 41t27 25.5q8 8 26.5 16t37 17.5t31.5 19.5t13 25q0 12 -7 18t-17.5 11 t-19.5 10.5t-15 15.5q-10 25 -14.5 52.5t-4.5 55.5q0 111 5.5 201t5.5 191v57q0 39 31.5 63.5t68.5 24.5q31 0 45 -23.5t19.5 -57.5t4 -73t-1.5 -69q0 -98 -4 -200.5t-14 -213.5q-2 -10 -11 -18.5t-19.5 -15.5t-18.5 -14t-8 -15zM924 459q0 86 4 164.5t4 164.5v58 q6 33 40 54.5t66 21.5q29 0 43.5 -21.5t19.5 -53.5t5 -71v-71v-33q0 -6 -3 -35t-6 -60.5t-5 -60.5t-2 -35v-180q0 -10 -3.5 -28.5t-13.5 -24.5h-8q-51 27 -80 37t-42 20t-16 31.5t-3 71.5v51z" />
<glyph unicode="x" horiz-adv-x="1003" d="M20 -37q0 -86 35 -155.5t93.5 -118.5t133 -76t156.5 -27q59 0 126 12.5t123 43t93 80t37 122.5q0 43 -27.5 68t-68.5 25q-59 0 -85 -23t-36 -55.5t-13 -72.5t-15.5 -72.5t-44 -55.5t-97.5 -23q-59 0 -122.5 20.5t-117 57.5t-87 90.5t-33.5 118.5q0 80 53 134.5t133 54.5 q59 0 110.5 -33t86.5 -76q0 -2 4 -2q4 2 42 30.5t99 74t119.5 89.5t100.5 76.5t42 36.5q0 18 -18 19q-18 0 -34.5 -9.5t-35 -20.5t-40 -20.5t-50.5 -9.5q-23 0 -45.5 9.5t-42 25.5t-31.5 36.5t-12 45.5v432q0 23 26.5 49.5t49.5 26.5q29 0 52 -35t41.5 -78t34 -77.5 t29.5 -34.5h17l141 141q16 8 29.5 21.5t13.5 29.5t-16.5 49t-41 73t-50 82t-43.5 77h-9q-18 0 -52 -37t-72.5 -80t-76.5 -80t-61 -37q-12 0 -29.5 37t-45 80t-68.5 80t-101 37q-10 0 -18 -1t-14 -8l-250 -249v-31q14 0 25.5 6t21.5 13.5t21.5 13.5t27.5 6q43 0 66.5 -22.5 t36 -55.5t15.5 -73t3 -72v-39v-101q0 -53 -3 -100t-10.5 -82t-21.5 -45q-98 -66 -148.5 -146.5t-50.5 -189.5z" />
<glyph unicode="y" horiz-adv-x="978" d="M334 -430q0 -16 22 -16h4q72 27 133.5 60.5t124.5 72.5q92 55 154 109t99.5 116.5t56 139.5t26 179.5t7.5 235.5v311q0 66 -7.5 131.5t-35.5 96.5l-84 84q-2 2 -7.5 10t-12.5 16t-14 15.5t-16 7.5h-8q-8 -4 -33.5 -20.5t-33.5 -20.5q-16 -12 -50 -39t-71 -55.5t-70 -50 t-45 -21.5h-4q-8 0 -8 8q-10 51 -27.5 87t-43 63.5t-61.5 49t-85 40.5q-2 2 -11.5 9t-20.5 16t-19.5 18.5t-8.5 19.5q0 35 31 46t67.5 15.5t67.5 9.5t31 29v7q-63 0 -128 -12.5t-116 -43t-84 -82t-33 -127.5q0 -47 13.5 -90t52.5 -71q16 -10 30.5 -20.5t20.5 -31.5v-315 q0 -14 -1 -49t-3 -75t-3 -74.5t-1 -49.5q-8 -18 -20.5 -28.5t-24.5 -18.5t-21.5 -16t-9.5 -23q0 -10 16.5 -23.5t40 -29.5t49 -34.5t44.5 -35.5q6 -4 18 -17t27.5 -27.5t28 -27l18.5 -18.5h8q16 0 25 8q63 59 123.5 118t134.5 106v37q-25 0 -45.5 -14.5t-42.5 -14.5 q-23 0 -33 24.5t-12 42.5v232q0 53 -3.5 118.5t4 122t31 95.5t74.5 39q23 0 36 -13.5t20.5 -33t9.5 -41t2 -37.5v-242q0 -29 -1 -103.5t-3 -157.5t-3.5 -158t-1.5 -103q-10 -94 -23 -158.5t-42 -113t-77 -87t-124 -82.5q-18 -10 -18 -24z" />
<glyph unicode="z" horiz-adv-x="802" d="M20 -29q0 -74 18.5 -149.5t58.5 -137t100.5 -100.5t146.5 -39q41 0 80 13.5t76 27.5q80 33 134 86.5t87 121t47 144t14 154.5q0 127 -41 242t-141 196v9q0 23 27.5 29.5t59.5 11t59.5 11.5t27.5 27q0 8 -7 10.5t-15 2.5h-7q-27 0 -52 -9.5t-50 -20.5t-50.5 -20.5 t-49.5 -9.5h-25q-14 0 -29.5 3.5t-27.5 7.5t-19 14q16 16 49 35.5t67 43t58.5 53.5t24.5 67v133q0 14 -23.5 50t-53 72.5t-56.5 65.5t-33 29q-10 0 -29.5 -15.5t-42 -36t-42 -40l-25.5 -25.5q-10 -8 -47 -30.5t-77 -51t-71.5 -58.5t-31.5 -52q18 0 33.5 8t30.5 17t31.5 17.5 t35.5 8.5q31 0 54 -16.5t40.5 -42t26 -55.5t8.5 -56q0 -53 -20.5 -85t-51.5 -49.5t-65.5 -27.5t-65.5 -21.5t-51.5 -26.5t-20.5 -46q0 -16 13.5 -27.5t29.5 -11.5q25 0 42.5 14.5t34.5 31.5t35.5 31.5t47.5 14.5q16 0 34.5 -4t28.5 -21l-8 -8q-72 -43 -133 -96t-105 -117.5 t-69 -138.5t-25 -158zM135 -8q0 272 217 440q14 10 18.5 13.5t18.5 3.5q20 0 32.5 -38t16.5 -88.5t5 -102.5t1 -83v-69q0 -143 -2 -250t-49 -164q-10 -12 -28.5 -31.5t-20.5 -19.5h-84q-27 0 -47 31.5t-34.5 73.5t-23 84t-10.5 61q-2 12 -4 37.5t-3 50t-2 41t-1 10.5z" />
<glyph unicode="&#xad;" d="M20 770q0 -16 12.5 -31.5t20.5 -27.5q27 -39 55.5 -79t62.5 -72t75 -52.5t94 -20.5q76 0 141.5 35t127 78t126 78t139.5 35q66 0 107 -30t84 -79l1 -1t3 -1q14 0 25.5 12.5t11.5 26.5t-8 33.5t-20.5 37t-25 33t-20.5 25.5q-68 74 -144.5 120t-178.5 46q-76 0 -141.5 -34 t-127 -75t-124 -74.5t-132.5 -33.5q-27 0 -48 10t-38.5 23.5t-30 23.5t-20.5 10q-10 0 -18.5 -3t-8.5 -13z" />
<glyph unicode="&#xdf;" horiz-adv-x="1218" d="M244 -172q8 -33 15 -79t13.5 -88t14.5 -71.5t20 -29.5q6 0 14.5 14t14.5 32.5t10 37t6 26.5l101 588q0 6 1 19.5t2 30t4 32.5t9 27l25 206l24 150l8 8q35 31 54.5 49.5t32 27.5t20.5 12t20 3q31 0 55.5 -16t41 -42t25.5 -55.5t9 -56.5q0 -59 -20.5 -93t-54 -52.5 t-77.5 -28.5t-89 -22q-12 -10 -22.5 -27.5t-10.5 -34.5q0 -16 13.5 -27.5t27.5 -11.5q25 0 43 14.5t34.5 33t35 33t47.5 14.5q39 0 81 -29t76.5 -70t57 -87t22.5 -81v-266q-14 -33 -24.5 -76t-25.5 -82t-38.5 -65.5t-66.5 -26.5q-16 0 -25.5 2t-26.5 8v9q0 4 9.5 12 t20.5 22.5t20.5 33t9.5 42.5q0 80 -52.5 114t-123.5 34q-70 0 -122 -39t-52 -117q0 -53 35.5 -91t88 -62.5t109.5 -37t100 -12.5q39 0 81 14.5t75 26.5q76 31 126 75t79 98.5t41 121t12 144.5q0 57 -15.5 122.5t-44 126t-71.5 109.5t-100 76q-29 8 -65 12t-44 20l8 9 q20 14 53 32.5t64 42t52.5 52t21.5 63.5v133q0 14 -23.5 50t-53.5 73t-56.5 64.5t-32.5 27.5t-42 -27.5t-79 -62.5t-83 -67.5t-52 -40.5t-30.5 -21.5t-35 -26t-29.5 -20.5l-14 -8h-8q-2 23 -5 51.5t-11 57t-22.5 53t-37.5 39.5l-223 139q-29 18 -48 49t-19 63q0 20 7 38 t29 18q25 0 45.5 -22.5t46 -49.5t60.5 -49.5t88 -22.5q49 0 83 26t54.5 65.5t28.5 86t8 89.5v16t-3 29.5t-12 28t-26 12.5h-6v-86q0 -2 -11.5 -11.5t-17.5 -13.5h-8l-108 109q-2 2 -12.5 5t-25 7t-26.5 7t-18 5h-4q-55 0 -96.5 -24.5t-67 -63.5t-37.5 -88t-12 -98 q0 -57 9 -113.5t9 -114.5q0 -55 -17.5 -85.5t-37 -49t-37 -30t-17.5 -25.5q0 -8 10.5 -14.5t14.5 -8.5h76q6 0 10 -34.5t7 -79.5t4 -90t3 -68q0 -8 1 -23.5t2.5 -31t3.5 -28.5t2 -17z" />
<glyph unicode="&#x2c6;" horiz-adv-x="1335" d="M20 283q12 -49 43 -89t72 -73t85 -60.5t83 -52.5q8 -6 12 -7t11 -1h12q18 0 60 29.5t91.5 66.5t97.5 67t79 30q45 0 82.5 -31t69.5 -67t57.5 -66.5t46.5 -30.5q88 59 161.5 135t155.5 141q16 8 25.5 16.5t9.5 24.5t-12 17q-18 0 -34 -12.5t-32 -25.5t-35.5 -25.5 t-44.5 -12.5q-35 0 -59.5 27.5t-24.5 64.5v457q0 12 8.5 30.5t24.5 18.5h225l8 8q0 2 3.5 26.5t5.5 41.5v28q0 16 -3.5 31t-13.5 15h-207q-4 0 -21.5 3t-21.5 13v29q0 35 9.5 74.5t23.5 74.5t31.5 57.5t36.5 22.5h10q0 -20 1 -47t9 -51.5t23.5 -42t46.5 -17.5t48 15.5 t24.5 37t9.5 45t2 39.5q0 41 -30 73t-73 32q-29 0 -49 -12.5t-37.5 -31t-34 -38.5t-34.5 -35l-8 8q0 4 -1 19.5t-1 21.5q0 53 16 86t45 51.5t66.5 24.5t80.5 6q12 0 24.5 -1t27.5 -1q8 2 8 15v14q0 6 -10.5 9t-23.5 4t-30 1h-24q-78 0 -139.5 -7t-115.5 -27.5t-103.5 -56.5 t-100.5 -93h-8q-12 0 -19 8l-57 117h-22q0 -23 8 -43.5t18 -41t21.5 -41t15.5 -40.5q6 -29 8 -68t2 -69q0 -72 -23.5 -137.5t-76.5 -116.5v-29h98v-543q0 -23 -17.5 -35t-40 -17t-46 -6t-37.5 -1q-66 0 -114 25.5t-79.5 67.5t-47 97.5t-15.5 114.5q0 25 1 92.5t4 140t7 129 t12 56.5h9q8 0 26.5 -48t40 -105.5t44 -105.5t38.5 -48l125 57q2 2 4 5t4 5v2q0 8 -23.5 62.5t-51 118t-52 114.5t-26.5 51h-4q-66 -23 -133.5 -43t-133.5 -40q-72 -23 -113.5 -54.5t-62 -76t-26 -100.5t-5.5 -126v-182v-182z" />
<glyph unicode="&#x2000;" horiz-adv-x="817" />
<glyph unicode="&#x2001;" horiz-adv-x="1634" />
<glyph unicode="&#x2002;" horiz-adv-x="817" />
<glyph unicode="&#x2003;" horiz-adv-x="1634" />
<glyph unicode="&#x2004;" horiz-adv-x="544" />
<glyph unicode="&#x2005;" horiz-adv-x="408" />
<glyph unicode="&#x2006;" horiz-adv-x="272" />
<glyph unicode="&#x2007;" horiz-adv-x="272" />
<glyph unicode="&#x2008;" horiz-adv-x="204" />
<glyph unicode="&#x2009;" horiz-adv-x="326" />
<glyph unicode="&#x200a;" horiz-adv-x="90" />
<glyph unicode="&#x2010;" d="M20 770q0 -16 12.5 -31.5t20.5 -27.5q27 -39 55.5 -79t62.5 -72t75 -52.5t94 -20.5q76 0 141.5 35t127 78t126 78t139.5 35q66 0 107 -30t84 -79l1 -1t3 -1q14 0 25.5 12.5t11.5 26.5t-8 33.5t-20.5 37t-25 33t-20.5 25.5q-68 74 -144.5 120t-178.5 46q-76 0 -141.5 -34 t-127 -75t-124 -74.5t-132.5 -33.5q-27 0 -48 10t-38.5 23.5t-30 23.5t-20.5 10q-10 0 -18.5 -3t-8.5 -13z" />
<glyph unicode="&#x2011;" d="M20 770q0 -16 12.5 -31.5t20.5 -27.5q27 -39 55.5 -79t62.5 -72t75 -52.5t94 -20.5q76 0 141.5 35t127 78t126 78t139.5 35q66 0 107 -30t84 -79l1 -1t3 -1q14 0 25.5 12.5t11.5 26.5t-8 33.5t-20.5 37t-25 33t-20.5 25.5q-68 74 -144.5 120t-178.5 46q-76 0 -141.5 -34 t-127 -75t-124 -74.5t-132.5 -33.5q-27 0 -48 10t-38.5 23.5t-30 23.5t-20.5 10q-10 0 -18.5 -3t-8.5 -13z" />
<glyph unicode="&#x2012;" d="M20 770q0 -16 12.5 -31.5t20.5 -27.5q27 -39 55.5 -79t62.5 -72t75 -52.5t94 -20.5q76 0 141.5 35t127 78t126 78t139.5 35q66 0 107 -30t84 -79l1 -1t3 -1q14 0 25.5 12.5t11.5 26.5t-8 33.5t-20.5 37t-25 33t-20.5 25.5q-68 74 -144.5 120t-178.5 46q-76 0 -141.5 -34 t-127 -75t-124 -74.5t-132.5 -33.5q-27 0 -48 10t-38.5 23.5t-30 23.5t-20.5 10q-10 0 -18.5 -3t-8.5 -13z" />
<glyph unicode="&#x2013;" horiz-adv-x="1064" d="M20 770q0 -16 12 -31.5t19 -27.5q26 -39 52.5 -79t58.5 -72t71 -52.5t89 -20.5q71 0 133 35t120 78t119 78t131 35q62 0 101 -30t79 -79l1 -1t3 -1q13 0 24 12.5t11 26.5t-7.5 33.5t-19.5 37t-23.5 33t-19.5 25.5q-64 74 -136 120t-168 46q-72 0 -134 -34t-119.5 -75 t-116.5 -74.5t-125 -33.5q-26 0 -45.5 10t-36 23.5t-28.5 23.5t-20 10q-9 0 -17 -3t-8 -13z" />
<glyph unicode="&#x2014;" horiz-adv-x="2088" d="M20 770q0 -16 23.5 -31.5t38.5 -27.5q51 -39 105 -79t118 -72t141.5 -52.5t176.5 -20.5q144 0 267.5 35t239.5 78t237.5 78t262.5 35q125 0 202.5 -30t158.5 -79l2 -1q1 -1 5 -1q27 0 48.5 12.5t21.5 26.5t-15 33.5t-38.5 37t-47 33t-39.5 25.5q-128 74 -272 120t-337 46 q-143 0 -266.5 -34t-239.5 -75t-234 -74.5t-250 -33.5q-51 0 -90.5 10t-72.5 23.5t-56.5 23.5t-38.5 10q-19 0 -35 -3t-16 -13z" />
<glyph unicode="&#x2018;" horiz-adv-x="288" d="M20 1284q12 -41 40 -57.5t67 -16.5q66 0 103.5 37t37.5 105q0 49 -17.5 75.5t-36.5 41t-36.5 19.5t-17.5 11q0 16 9 28.5t20.5 25t20.5 25.5t9 30q0 14 -10 19t-23 5q-27 0 -55.5 -31.5t-53 -77.5t-41 -98.5t-16.5 -91.5v-49z" />
<glyph unicode="&#x2019;" horiz-adv-x="288" d="M70 1235q0 -16 10 -20.5t22 -4.5q27 0 56.5 32t54.5 78t40 97t15 90v49q-12 43 -39.5 59.5t-66.5 16.5q-66 0 -104 -36.5t-38 -104.5q0 -51 17.5 -78t37 -40t37 -17t17.5 -13q0 -16 -9 -28t-20.5 -24.5t-20.5 -26t-9 -29.5z" />
<glyph unicode="&#x201c;" horiz-adv-x="595" d="M20 1284q12 -41 40 -57.5t67 -16.5q66 0 104.5 37t38.5 105q0 49 -17 75.5t-37.5 40t-38 19.5t-17.5 12q0 16 9 28.5t20.5 25t20.5 25.5t9 30q0 16 -10 21t-23 5q-27 0 -55.5 -32.5t-53 -78.5t-41 -98.5t-16.5 -89.5v-51zM328 1284q12 -41 39.5 -57.5t66.5 -16.5 q66 0 103.5 37t37.5 105q0 51 -17 77.5t-36.5 40t-37 17.5t-17.5 12q0 16 9 28.5t20.5 25t20.5 25.5t9 30q0 16 -10 21t-22 5q-25 0 -54.5 -32.5t-55.5 -78.5t-42 -97.5t-16 -90.5q0 -6 1 -25.5t1 -25.5z" />
<glyph unicode="&#x201d;" horiz-adv-x="595" d="M70 1235q0 -16 10 -20.5t22 -4.5q27 0 56.5 32t54.5 78t41 98t16 91q0 72 -29.5 98.5t-78.5 26.5q-66 0 -104 -36.5t-38 -106.5q0 -51 17.5 -78t37 -40t37 -17t17.5 -13q0 -16 -9 -28t-20.5 -24.5t-20.5 -26t-9 -29.5zM377 1235q0 -16 10 -20.5t21 -4.5q27 0 56.5 33 t54 79t40.5 97t16 90v50q-12 41 -39.5 58t-66.5 17q-66 0 -104.5 -36.5t-38.5 -106.5q0 -49 17 -75.5t36.5 -40t37 -19.5t17.5 -13q0 -16 -9 -28t-19.5 -24.5t-19.5 -26t-9 -29.5z" />
<glyph unicode="&#x2026;" horiz-adv-x="1064" d="M25 131q0 -23 5 -46.5t16 -42.5t28.5 -31.5t42.5 -12.5q35 0 71.5 13.5t66.5 37t49.5 55t19.5 66.5q0 74 -76 102h-53q-72 0 -121 -30.5t-49 -110.5zM381 139q0 -23 5 -46t16.5 -42.5t29 -32t41.5 -12.5q35 0 72 13.5t66.5 37t49 55t19.5 66.5q0 74 -76 103h-53 q-72 0 -121 -31t-49 -111zM735 141q0 -23 5 -46t16.5 -42.5t29 -32t41.5 -12.5q35 0 72 13.5t66.5 37t49 55t19.5 66.5q0 74 -76 103h-53q-72 0 -121 -31t-49 -111z" />
<glyph unicode="&#x202f;" horiz-adv-x="326" />
<glyph unicode="&#x205f;" horiz-adv-x="408" />
<glyph unicode="&#x25fc;" horiz-adv-x="1136" d="M0 1137h1137v-1137h-1137v1137z" />
</font>
</defs>
</svg>
